VERSION	0.00.00	1.03.00
FES_MODE	0
BPM_DEF	144.000	144.000	144.000	144.000
MET_DEF	4	4
RESOLUTION	384
CLK_DEF	384
COMPATIBLE_CODE	MA2

BPM	0	0	144.000
MET	0	0	4	4

STR	2	0	4
SI_	2	0	4	96	192	0
TAP	6	0	0
TAP	6	0	7
TAP	6	96	1
TAP	6	192	0
TAP	6	192	7
TAP	6	288	6
TAP	7	0	0
TAP	7	48	1
TAP	7	96	2
TAP	7	144	7
HLD	7	192	6	96
TAP	8	0	0
TAP	8	0	7
TAP	8	96	6
TAP	8	192	0
TAP	8	192	7
TAP	8	288	1
TAP	9	0	7
TAP	9	48	6
TAP	9	96	5
TAP	9	144	0
HLD	9	192	1	96
STR	10	0	3
SCR	10	0	3	96	96	6
TAP	10	336	7
HLD	11	0	7	96
HLD	11	96	0	96
HLD	11	192	1	96
STR	12	0	4
SCL	12	0	4	96	96	1
TAP	12	336	0
HLD	13	0	0	96
HLD	13	96	7	96
HLD	13	192	6	96
TAP	14	0	1
TAP	14	0	7
STR	14	48	0
SI_	14	48	0	96	144	4
TAP	14	96	1
TAP	14	96	7
TAP	15	0	0
TAP	15	0	6
STR	15	48	7
SI_	15	48	7	96	144	3
TAP	15	96	0
TAP	15	96	6
HLD	16	0	4	96
HLD	16	96	5	96
HLD	16	192	6	96
TAP	16	288	7
STR	17	0	0
SI_	17	0	0	96	96	5
STR	17	0	1
SI_	17	0	1	96	96	4
TAP	18	0	5
STR	18	0	6
SI_	18	0	6	96	48	3
STR	18	192	1
SI_	18	192	1	96	48	4
TAP	18	192	2
TAP	19	0	3
TAP	19	0	7
TAP	19	96	0
TAP	19	96	4
TAP	19	192	3
TAP	19	192	7
STR	20	0	6
SCL	20	0	6	96	96	3
HLD	20	192	2	96
STR	21	0	7
SCR	21	0	7	96	96	2
HLD	21	192	3	96
STR	22	0	0
SI_	22	0	0	96	48	5
STR	22	192	1
SI_	22	192	1	96	48	4
STR	23	0	2
SCR	23	0	2	96	96	5
STR	24	0	4
SCR	24	0	4	96	48	7
STR	24	192	4
SI_	24	192	4	96	48	0
STR	25	0	7
SI_	25	0	7	96	96	3
TAP	25	192	2
STR	26	0	2
SI_	26	0	2	96	48	6
STR	26	192	5
SI_	26	192	5	96	48	1
STR	27	0	7
SI_	27	0	7	96	192	3
STR	28	0	1
SCR	28	0	1	96	96	4
HLD	28	192	5	96
STR	29	0	0
SCL	29	0	0	96	96	5
HLD	29	192	4	96
STR	30	0	7
SI_	30	0	7	96	48	2
STR	30	192	6
SI_	30	192	6	96	48	3
STR	31	0	5
SCL	31	0	5	96	96	2
STR	32	0	3
SCL	32	0	3	96	48	0
STR	32	192	3
SI_	32	192	3	96	48	7
STR	33	0	0
SI_	33	0	0	96	96	4
TAP	33	192	5
STR	34	0	5
SI_	34	0	5	96	48	1
STR	34	192	2
SI_	34	192	2	96	48	6
STR	35	0	0
SI_	35	0	0	96	384	4
BRK	36	192	5
BRK	36	192	6
BRK	36	288	6
BRK	36	288	7
BRK	37	0	0
BRK	37	0	7
TAP	37	192	0
TAP	37	192	3
TAP	37	288	1
TAP	37	336	2
TAP	38	0	1
TAP	38	192	6
TAP	38	288	7
STR	39	0	0
SI_	39	0	0	96	48	5
STR	39	192	7
SI_	39	192	7	96	48	2
HLD	40	0	0	96
TAP	40	192	0
TAP	40	192	7
TAP	40	288	0
TAP	40	288	1
TAP	41	0	1
TAP	41	0	2
TAP	41	192	2
TAP	41	192	5
TAP	41	288	4
TAP	41	336	3
TAP	42	0	4
TAP	42	288	5
TAP	42	336	6
STR	43	0	7
SI_	43	0	7	96	48	2
STR	43	192	1
SI_	43	192	1	96	48	4
HLD	44	0	3	96
BRK	44	192	1
BRK	44	192	2
BRK	44	288	0
BRK	44	288	1
BRK	45	0	0
BRK	45	0	7
TAP	45	192	4
TAP	45	192	7
TAP	45	288	6
TAP	45	336	5
TAP	46	0	6
TAP	46	192	1
TAP	46	288	0
STR	47	0	7
SI_	47	0	7	96	48	2
STR	47	192	0
SI_	47	192	0	96	48	5
TAP	48	0	7
TAP	48	192	0
TAP	48	192	7
TAP	48	288	6
TAP	48	288	7
TAP	49	0	5
TAP	49	0	6
TAP	49	192	2
TAP	49	192	5
TAP	49	288	3
TAP	49	336	4
TAP	50	0	3
TAP	50	288	2
TAP	50	336	1
STR	51	0	0
SI_	51	0	0	96	48	5
STR	51	192	6
SI_	51	192	6	96	144	3
STR	52	96	4
SI_	52	96	4	96	384	7
HLD	54	0	4	72
HLD	54	72	7	72
HLD	54	144	2	72
HLD	54	216	5	72
HLD	54	288	0	72
HLD	54	360	3	312
HLD	56	0	1	72
HLD	56	72	6	216
STR	57	0	1
SI_	57	0	1	96	24	5
STR	57	144	6
SI_	57	144	6	96	24	2
STR	57	288	0
SI_	57	288	0	96	24	4

T_REC_TAP	82
T_REC_BRK	12
T_REC_XTP	0
T_REC_HLD	25
T_REC_XHO	0
T_REC_STR	43
T_REC_BST	0
T_REC_XST	0
T_REC_TTP	0
T_REC_THO	0
T_REC_SLD	43
T_REC_ALL	205
T_NUM_TAP	125
T_NUM_BRK	12
T_NUM_HLD	25
T_NUM_SLD	43
T_NUM_ALL	205
T_JUDGE_TAP	137
T_JUDGE_HLD	58
T_JUDGE_SLD	43
T_JUDGE_ALL	238
TTM_EACHPAIRS	30
TTM_SCR_TAP	62500
TTM_SCR_BRK	31200
TTM_SCR_HLD	25000
TTM_SCR_SLD	64500
TTM_SCR_ALL	183200
TTM_SCR_S	176550
TTM_SCR_SS	182000
TTM_RAT_ACV	10065

