VERSION	0.00.00	1.03.00
FES_MODE	0
BPM_DEF	144.000	144.000	144.000	144.000
MET_DEF	4	4
RESOLUTION	384
CLK_DEF	384
COMPATIBLE_CODE	MA2

BPM	0	0	144.000
MET	0	0	4	4

STR	1	288	3
SI_	1	288	3	96	288	0
STR	3	288	7
SI_	3	288	7	96	288	4
TAP	6	0	0
TAP	6	96	1
TAP	6	192	2
TAP	6	288	3
TAP	7	0	2
TAP	7	96	1
TAP	7	192	0
TAP	8	0	7
TAP	8	96	6
TAP	8	192	5
TAP	8	288	4
TAP	9	0	5
HLD	9	96	6	192
TAP	9	192	7
TAP	9	288	0
TAP	10	0	1
TAP	10	96	2
HLD	10	192	7	192
TAP	11	0	6
TAP	11	96	4
TAP	11	96	5
TAP	11	192	0
TAP	11	192	1
TAP	11	288	7
TAP	12	0	6
TAP	12	96	0
TAP	12	192	1
TAP	12	288	2
HLD	13	1	6	191
TAP	13	96	5
TAP	13	192	1
TAP	13	288	0
TAP	13	288	7
TAP	14	0	7
TAP	14	48	7
STR	14	96	6
SI_	14	96	6	96	96	2
TAP	15	0	0
TAP	15	48	0
STR	15	96	1
SI_	15	96	1	96	96	5
TAP	16	0	3
TAP	16	96	2
TAP	16	192	1
TAP	16	288	0
TAP	17	0	6
TAP	17	0	7
HLD	17	96	0	192
HLD	17	96	7	192
HLD	18	0	1	192
HLD	18	192	2	96
TAP	19	0	3
TAP	19	0	4
TAP	19	96	0
TAP	19	96	1
TAP	19	192	6
TAP	19	192	7
TAP	20	0	1
STR	20	96	5
SCR	20	96	5	96	96	0
TAP	21	0	6
STR	21	96	2
SCL	21	96	2	96	96	7
HLD	22	0	1	96
TAP	22	96	2
HLD	22	192	6	96
TAP	22	288	4
TAP	23	0	0
TAP	23	96	7
TAP	23	192	2
TAP	23	288	0
HLD	24	0	1	288
HLD	25	0	5	288
HLD	26	0	2	96
TAP	26	96	6
HLD	26	192	5	96
TAP	26	288	0
HLD	27	0	7	96
TAP	27	96	6
TAP	27	192	0
TAP	27	192	7
BRK	27	288	2
BRK	27	288	5
TAP	28	0	6
STR	28	96	2
SCL	28	96	2	96	96	7
TAP	29	0	1
STR	29	96	5
SCR	29	96	5	96	96	0
HLD	30	0	6	96
TAP	30	96	5
HLD	30	192	1	96
TAP	30	288	3
TAP	31	0	7
TAP	31	96	0
TAP	31	192	1
TAP	31	288	0
HLD	32	0	0	192
HLD	32	192	1	192
HLD	33	0	2	288
HLD	33	192	6	96
TAP	34	0	1
TAP	34	96	0
TAP	34	96	1
TAP	34	192	6
TAP	34	288	6
STR	34	288	7
SI_	34	288	7	96	192	4
BRK	36	192	0
BRK	36	192	5
BRK	36	288	2
BRK	36	288	3
BRK	37	0	6
BRK	37	0	7
TAP	37	192	1
TAP	37	288	0
TAP	38	0	1
TAP	38	0	2
TAP	38	192	2
TAP	38	192	5
TAP	38	288	1
TAP	38	288	6
BRK	39	0	0
BRK	39	0	7
BRK	39	192	6
TAP	39	288	0
TAP	39	288	1
BRK	40	0	0
BRK	40	0	7
TAP	40	192	1
TAP	40	192	4
TAP	40	288	6
TAP	40	288	7
TAP	41	0	2
TAP	41	0	3
TAP	41	192	2
TAP	41	288	3
TAP	42	0	4
TAP	42	96	5
TAP	42	192	1
TAP	42	288	7
HLD	43	0	6	192
TAP	43	192	7
TAP	43	288	2
TAP	43	288	3
TAP	44	0	3
TAP	44	0	4
BRK	44	192	0
BRK	44	192	1
BRK	44	288	4
BRK	44	288	5
BRK	45	0	0
BRK	45	0	7
TAP	45	192	1
TAP	45	288	1
TAP	45	288	4
TAP	46	0	6
TAP	46	96	3
TAP	46	96	6
TAP	46	192	0
TAP	46	288	0
TAP	46	288	4
BRK	47	0	7
TAP	47	96	3
TAP	47	96	7
BRK	47	192	2
TAP	47	288	2
TAP	47	288	3
BRK	48	0	4
TAP	48	96	4
TAP	48	96	5
BRK	48	192	0
BRK	48	192	1
BRK	48	288	0
BRK	48	288	7
BRK	49	0	6
TAP	49	96	5
TAP	49	96	6
TAP	49	192	1
TAP	49	288	1
TAP	49	288	2
TAP	50	0	5
TAP	50	96	4
TAP	50	96	5
TAP	50	192	2
TAP	50	288	2
TAP	50	288	3
TAP	51	0	6
TAP	51	96	0
TAP	51	96	7
TAP	51	192	1
STR	51	288	5
SI_	51	288	5	96	192	0
STR	53	288	3
SI_	53	288	3	96	288	0
STR	55	288	0
SI_	55	288	0	96	288	3
STR	55	288	7
SI_	55	288	7	96	288	4

T_REC_TAP	129
T_REC_BRK	27
T_REC_XTP	0
T_REC_HLD	21
T_REC_XHO	0
T_REC_STR	13
T_REC_BST	0
T_REC_XST	0
T_REC_TTP	0
T_REC_THO	0
T_REC_SLD	13
T_REC_ALL	203
T_NUM_TAP	142
T_NUM_BRK	27
T_NUM_HLD	21
T_NUM_SLD	13
T_NUM_ALL	203
T_JUDGE_TAP	169
T_JUDGE_HLD	72
T_JUDGE_SLD	13
T_JUDGE_ALL	254
TTM_EACHPAIRS	43
TTM_SCR_TAP	71000
TTM_SCR_BRK	70200
TTM_SCR_HLD	21000
TTM_SCR_SLD	19500
TTM_SCR_ALL	181700
TTM_SCR_S	173650
TTM_SCR_SS	179000
TTM_RAT_ACV	10150

