VERSION	0.00.00	1.03.00
FES_MODE	0
BPM_DEF	144.000	144.000	144.000	144.000
MET_DEF	4	4
RESOLUTION	384
CLK_DEF	384
COMPATIBLE_CODE	MA2

BPM	0	0	144.000
MET	0	0	4	4

TAP	2	0	0
TAP	2	0	7
HLD	3	0	1	192
HLD	3	0	6	192
TAP	4	0	5
TAP	5	192	2
TAP	6	0	0
TAP	6	0	1
TAP	6	192	6
TAP	7	0	6
TAP	7	0	7
TAP	7	192	1
TAP	8	0	0
TAP	8	0	1
TAP	8	192	6
TAP	9	0	6
TAP	9	0	7
TAP	9	192	1
HLD	10	0	1	192
TAP	10	288	1
HLD	11	0	0	192
TAP	11	288	0
HLD	12	0	7	192
TAP	12	288	7
HLD	13	0	6	192
TAP	13	288	6
TAP	14	0	7
TAP	14	96	7
TAP	15	0	0
TAP	15	96	0
TAP	16	0	2
TAP	16	0	3
TAP	16	192	5
TAP	17	0	5
TAP	17	0	6
TAP	17	192	1
TAP	18	0	0
TAP	18	0	1
TAP	18	192	6
TAP	19	0	6
TAP	19	0	7
TAP	19	192	6
STR	20	0	6
SI_	20	0	6	96	96	2
TAP	21	0	1
TAP	21	192	1
STR	22	0	1
SI_	22	0	1	96	96	5
TAP	23	0	6
TAP	23	192	6
TAP	24	0	7
TAP	24	192	0
HLD	25	0	1	192
TAP	26	0	0
TAP	26	192	7
HLD	27	0	6	194
STR	28	0	1
SI_	28	0	1	96	96	5
TAP	29	0	6
TAP	29	192	6
STR	30	0	6
SI_	30	0	6	96	96	2
TAP	31	0	1
TAP	31	192	1
TAP	32	0	7
TAP	32	192	6
HLD	33	0	5	192
TAP	34	0	0
TAP	34	192	1
HLD	35	0	2	192
TAP	36	192	7
TAP	36	288	7
BRK	37	0	7
TAP	37	192	0
TAP	37	288	1
TAP	38	0	2
TAP	38	192	2
TAP	39	0	2
TAP	39	192	1
TAP	39	288	1
TAP	40	0	1
TAP	40	192	0
TAP	40	288	0
TAP	41	0	0
TAP	41	192	7
TAP	41	288	6
TAP	42	0	5
TAP	43	0	5
TAP	43	192	6
TAP	43	288	6
TAP	44	0	6
TAP	44	192	7
TAP	44	288	7
BRK	45	0	0
TAP	45	0	7
TAP	45	192	0
TAP	45	288	1
TAP	46	0	2
TAP	46	192	2
TAP	47	0	2
TAP	47	192	1
TAP	47	288	1
TAP	48	0	1
TAP	48	192	0
TAP	48	288	0
TAP	49	0	0
TAP	49	0	7
TAP	49	192	7
TAP	49	288	6
TAP	50	0	5
TAP	51	2	5
TAP	51	192	6
TAP	51	288	6
HLD	52	0	1	672
HLD	52	0	6	672
TAP	54	0	1
TAP	54	0	6
HLD	55	0	0	192
HLD	55	0	7	192
TAP	56	0	1
TAP	56	0	6
TAP	57	0	7
TAP	57	144	0
TAP	57	288	0
TAP	57	288	7

T_REC_TAP	101
T_REC_BRK	2
T_REC_XTP	0
T_REC_HLD	14
T_REC_XHO	0
T_REC_STR	4
T_REC_BST	0
T_REC_XST	0
T_REC_TTP	0
T_REC_THO	0
T_REC_SLD	4
T_REC_ALL	125
T_NUM_TAP	105
T_NUM_BRK	2
T_NUM_HLD	14
T_NUM_SLD	4
T_NUM_ALL	125
T_JUDGE_TAP	107
T_JUDGE_HLD	77
T_JUDGE_SLD	4
T_JUDGE_ALL	188
TTM_EACHPAIRS	17
TTM_SCR_TAP	52500
TTM_SCR_BRK	5200
TTM_SCR_HLD	14000
TTM_SCR_SLD	6000
TTM_SCR_ALL	77700
TTM_SCR_S	75200
TTM_SCR_SS	77500
TTM_RAT_ACV	10025

