VERSION	0.00.00	1.03.00
FES_MODE	0
BPM_DEF	140.000	140.000	140.000	140.000
MET_DEF	4	4
RESOLUTION	384
CLK_DEF	384
COMPATIBLE_CODE	MA2

BPM	0	0	140.000
MET	0	0	4	4

HLD	1	0	3	96
TAP	1	0	4
TAP	1	48	4
TAP	1	72	4
HLD	1	96	4	96
TAP	1	144	3
TAP	1	168	3
HLD	1	192	3	96
TAP	1	240	4
TAP	1	264	4
STR	1	288	5
SI_	1	288	5	96	48	2
TAP	1	336	4
STR	2	0	1
SI_	2	0	1	96	48	6
TAP	2	0	5
TAP	2	48	0
TAP	2	96	1
STR	2	96	5
SI_	2	96	5	96	48	2
TAP	2	144	4
STR	2	192	0
SF_	2	192	0	96	48	4
TAP	2	192	5
TAP	2	240	7
TAP	2	288	0
STR	3	0	5
SI_	3	0	5	96	48	0
TAP	3	48	3
HLD	3	96	2	24
TAP	3	96	5
HLD	3	144	2	24
STR	3	192	0
SI_	3	192	0	96	48	5
TAP	3	240	2
TAP	3	288	0
HLD	3	288	3	24
HLD	3	336	3	24
TAP	4	0	5
TAP	4	48	4
TAP	4	96	2
STR	4	96	3
SI_	4	96	3	96	48	7
TAP	4	144	1
TAP	4	144	4
STR	4	192	2
SI_	4	192	2	96	48	0
STR	4	192	3
SI_	4	192	3	96	48	6
TAP	4	288	2
TAP	4	288	3
STR	5	0	2
SI_	5	0	2	96	48	7
TAP	5	48	4
TAP	5	96	2
HLD	5	96	5	24
HLD	5	144	5	24
STR	5	192	7
SI_	5	192	7	96	48	2
TAP	5	240	5
STR	5	288	4
SUL	5	288	4	96	96	3
TAP	5	288	7
TAP	5	336	3
TAP	6	0	4
STR	6	96	0
SI_	6	96	0	96	48	4
TAP	6	144	7
TAP	6	192	0
TAP	6	192	7
TAP	6	240	7
HLD	6	288	2	24
HLD	6	288	6	24
HLD	6	336	0	24
HLD	6	336	4	24
STR	7	0	2
SI_	7	0	2	96	48	7
TAP	7	0	6
TAP	7	48	5
TAP	7	96	2
TAP	7	96	4
TAP	7	144	3
TAP	7	192	2
STR	7	192	6
SI_	7	192	6	96	48	3
TAP	7	240	1
STR	7	288	0
SUL	7	288	0	96	96	7
TAP	7	288	6
TAP	7	336	7
TAP	8	0	0
TAP	8	144	2
TAP	8	144	5
TAP	8	192	2
TAP	8	192	5
TAP	8	200	4
TAP	8	208	3
TAP	8	216	2
STR	8	288	0
SV_	8	288	0	96	48	3
STR	8	288	7
SV_	8	288	7	96	48	4
STR	8	336	3
SCL	8	336	3	96	48	0
STR	8	336	4
SCR	8	336	4	96	48	7
TAP	9	144	1
HLD	9	144	6	48
HLD	9	192	4	48
HLD	9	240	3	48
TAP	9	288	1
TAP	9	336	0
TAP	9	336	7
TAP	10	0	0
TAP	10	0	3
TAP	10	8	1
TAP	10	16	2
TAP	10	24	3
TAP	10	72	0
TAP	10	72	3
TAP	10	80	1
TAP	10	88	2
TAP	10	96	3
TAP	10	144	0
TAP	10	144	3
TAP	10	152	1
TAP	10	160	2
TAP	10	168	3
STR	10	192	1
SI_	10	192	1	96	48	5
TAP	10	192	7
TAP	10	240	0
STR	10	240	6
SI_	10	240	6	96	48	2
TAP	10	288	1
STR	10	288	7
SI_	10	288	7	96	48	3
TAP	10	336	6
TAP	11	0	7
STR	11	96	2
SI_	11	96	2	96	48	7
TAP	11	96	4
TAP	11	144	1
STR	11	144	3
SI_	11	144	3	96	48	6
TAP	11	192	2
TAP	11	192	4
TAP	11	240	3
STR	11	336	1
SCL	11	336	1	96	48	6
TAP	11	336	6
TAP	12	0	3
TAP	12	0	4
TAP	12	48	1
TAP	12	48	5
TAP	12	72	5
TAP	12	144	2
STR	12	144	5
SCL	12	144	5	96	48	2
TAP	12	192	0
TAP	12	192	7
TAP	12	240	1
TAP	12	240	5
TAP	12	264	1
TAP	12	336	0
TAP	12	336	7
TAP	13	0	3
STR	13	0	5
SI_	13	0	5	96	48	0
STR	13	48	4
SI_	13	48	4	96	48	1
TAP	13	48	6
TAP	13	96	3
TAP	13	96	5
TAP	13	144	4
STR	13	192	7
SXL	13	192	7	96	48	1
SXR	13	192	7	96	48	5
TAP	13	216	7
TAP	13	264	7
TAP	13	288	7
TAP	14	0	1
TAP	14	0	6
TAP	14	48	1
TAP	14	48	6
TAP	14	192	1
TAP	14	192	3
TAP	14	240	1
TAP	14	240	7
TAP	14	288	3
STR	14	288	5
SI_	14	288	5	96	48	2
TAP	15	0	5
STR	15	48	1
SI_	15	48	1	96	48	6
TAP	15	72	0
TAP	15	96	0
TAP	15	144	1
TAP	15	144	5
TAP	15	192	4
STR	15	240	5
SI_	15	240	5	96	48	2
TAP	15	264	6
TAP	15	288	6
TAP	15	336	5
TAP	16	48	0
TAP	16	72	0
STR	16	96	1
SI_	16	96	1	96	48	6
HLD	16	96	4	24
HLD	16	144	4	24
TAP	16	192	1
TAP	16	240	5
STR	16	288	2
SI_	16	288	2	96	48	5
TAP	16	288	5
TAP	16	312	1
TAP	16	336	1
TAP	17	0	2
STR	17	48	6
SI_	17	48	6	96	48	1
TAP	17	72	7
TAP	17	96	7
TAP	17	144	6
HLD	17	192	3	24
HLD	17	240	3	24
HLD	17	240	4	24
TAP	17	288	4
STR	17	336	2
SI_	17	336	2	96	48	5
TAP	17	360	3
TAP	18	0	3
TAP	18	48	2
BRK	18	48	7
STR	18	144	6
SI_	18	144	6	96	48	1
TAP	18	168	7
TAP	18	192	7
BRK	18	240	2
TAP	18	240	6
BST	18	288	2
SI_	18	288	2	96	48	5
TAP	18	312	3
TAP	18	336	3
TAP	19	0	2
STR	19	48	6
SI_	19	48	6	96	48	1
TAP	19	72	7
TAP	19	96	7
HLD	19	144	3	24
TAP	19	144	6
HLD	19	192	4	24
STR	19	240	2
SI_	19	240	2	96	48	5
TAP	19	264	3
TAP	19	288	3
TAP	19	336	2
HLD	20	0	7	24
HLD	20	48	0	24
STR	20	96	6
SI_	20	96	6	96	48	1
TAP	20	120	7
TAP	20	144	7
TAP	20	192	6
TAP	20	240	2
STR	20	288	5
SI_	20	288	5	96	48	2
TAP	20	312	4
TAP	20	336	4
HLD	21	0	3	144
TAP	21	0	5
TAP	21	96	1
HLD	21	144	1	96
BRK	21	192	0
BRK	21	240	0
HLD	21	336	3	24
HLD	22	0	3	24
HLD	22	0	4	24
TAP	22	48	1
TAP	22	48	6
STR	22	144	3
SI_	22	144	3	96	48	7
STR	22	144	4
SI_	22	144	4	96	48	0
TAP	22	168	2
TAP	22	168	5
TAP	22	240	3
TAP	22	240	4
TAP	23	0	2
STR	23	0	4
SI_	23	0	4	96	48	0
TAP	23	48	2
TAP	23	72	3
TAP	23	96	4
STR	23	144	3
SI_	23	144	3	96	48	7
TAP	23	192	1
TAP	23	216	2
TAP	23	240	3
STR	23	288	2
SI_	23	288	2	96	48	6
TAP	23	336	0
TAP	23	360	1
TAP	24	0	2
TAP	24	48	1
TAP	24	96	7
TAP	24	120	0
TAP	24	144	1
TAP	24	192	4
TAP	24	192	7
TAP	24	200	6
TAP	24	208	5
TAP	24	216	4
TAP	24	264	4
TAP	24	264	7
TAP	24	272	6
TAP	24	280	5
TAP	24	288	4
TAP	24	336	4
TAP	24	336	7
TAP	24	344	6
TAP	24	352	5
TAP	24	360	4
STR	25	0	3
SI_	25	0	3	96	48	7
TAP	25	48	5
TAP	25	72	4
TAP	25	96	3
STR	25	144	4
SI_	25	144	4	96	48	0
TAP	25	192	6
TAP	25	216	5
TAP	25	240	4
STR	25	288	5
SI_	25	288	5	96	48	1
TAP	25	336	7
TAP	25	360	6
TAP	26	0	5
TAP	26	48	6
TAP	26	96	0
TAP	26	120	7
TAP	26	144	6
HLD	26	192	4	24
HLD	26	240	3	24
HLD	26	240	4	24
TAP	26	336	7
STR	27	0	3
SI_	27	0	3	96	48	7
TAP	27	0	5
TAP	27	48	5
TAP	27	72	4
TAP	27	96	3
STR	27	144	4
SI_	27	144	4	96	48	0
TAP	27	192	6
TAP	27	216	5
TAP	27	240	4
STR	27	288	5
SI_	27	288	5	96	48	1
TAP	27	336	7
TAP	27	360	6
TAP	28	0	5
TAP	28	48	6
TAP	28	96	0
TAP	28	120	7
TAP	28	144	6
TAP	28	192	0
TAP	28	192	3
TAP	28	200	1
TAP	28	208	2
TAP	28	216	3
TAP	28	264	0
TAP	28	264	3
TAP	28	272	1
TAP	28	280	2
TAP	28	288	3
TAP	28	336	0
TAP	28	336	3
TAP	28	344	1
TAP	28	352	2
TAP	28	360	3
STR	29	0	4
SI_	29	0	4	96	48	0
TAP	29	48	2
TAP	29	72	3
TAP	29	96	4
STR	29	144	3
SI_	29	144	3	96	48	7
TAP	29	192	1
TAP	29	216	2
TAP	29	240	3
STR	29	288	2
SI_	29	288	2	96	48	6
TAP	29	336	0
TAP	29	360	1
TAP	30	0	2
TAP	30	48	1
TAP	30	96	7
TAP	30	120	0
TAP	30	144	1
STR	30	192	0
SV_	30	192	0	96	48	2
STR	30	192	7
SV_	30	192	7	96	48	5
TAP	30	240	3
TAP	30	240	4
TAP	30	288	0
TAP	30	288	7
STR	31	0	1
SI_	31	0	1	96	48	6
STR	31	0	6
SI_	31	0	6	96	48	1
TAP	31	48	0
TAP	31	72	7
TAP	31	96	1
TAP	31	96	6
STR	31	192	1
SI_	31	192	1	96	48	4
TAP	31	192	4
TAP	31	240	2
TAP	31	264	3
TAP	31	288	1
TAP	31	288	4
TAP	31	336	6
TAP	32	0	3
STR	32	0	6
SI_	32	0	6	96	48	3
TAP	32	48	5
TAP	32	72	4
TAP	32	96	3
TAP	32	96	6
STR	32	192	2
SI_	32	192	2	96	48	5
STR	32	192	5
SI_	32	192	5	96	48	2
TAP	32	216	4
TAP	32	240	3
TAP	32	264	4
TAP	32	288	2
TAP	32	288	5
STR	33	0	1
SI_	33	0	1	96	48	6
STR	33	0	6
SI_	33	0	6	96	48	1
TAP	33	48	7
TAP	33	72	0
TAP	33	96	1
TAP	33	96	6
TAP	33	192	3
STR	33	192	6
SI_	33	192	6	96	48	3
TAP	33	240	5
TAP	33	264	4
TAP	33	288	3
TAP	33	288	6
TAP	33	336	1
TAP	34	0	1
TAP	34	0	4
TAP	34	48	2
TAP	34	72	3
TAP	34	96	1
STR	34	96	4
SI_	34	96	4	96	48	0
SV_	34	96	4	96	48	7
TAP	34	120	3
TAP	34	144	2
TAP	34	192	4
TAP	34	288	2
HLD	34	288	5	24
HLD	34	312	2	24
HLD	34	336	5	24
TAP	34	360	2
STR	35	0	1
SI_	35	0	1	96	48	6
STR	35	0	6
SI_	35	0	6	96	48	1
TAP	35	48	0
TAP	35	72	7
TAP	35	96	1
TAP	35	96	6
STR	35	192	1
SI_	35	192	1	96	48	4
TAP	35	192	4
TAP	35	240	2
TAP	35	264	3
TAP	35	288	1
TAP	35	288	4
TAP	35	336	6
TAP	36	0	3
STR	36	0	6
SI_	36	0	6	96	48	3
TAP	36	48	5
TAP	36	72	4
TAP	36	96	3
TAP	36	96	6
STR	36	192	2
SI_	36	192	2	96	48	5
STR	36	192	5
SI_	36	192	5	96	48	2
TAP	36	216	4
TAP	36	240	3
TAP	36	264	4
TAP	36	288	2
TAP	36	288	5
STR	37	0	1
SI_	37	0	1	96	48	6
STR	37	0	6
SI_	37	0	6	96	48	1
TAP	37	48	7
TAP	37	72	0
TAP	37	96	1
TAP	37	96	6
TAP	37	192	3
STR	37	192	6
SI_	37	192	6	96	48	3
TAP	37	240	5
TAP	37	264	4
TAP	37	288	3
STR	37	288	6
SXL	37	288	6	96	192	1
TAP	37	336	1
TAP	38	0	1
TAP	38	0	6
TAP	38	48	3
TAP	38	96	3
TAP	38	144	4
TAP	38	192	4
TAP	38	240	3
BRK	38	288	1
BRK	38	288	6
TAP	38	336	0
STR	39	0	1
SI_	39	0	1	96	48	3
TAP	39	0	6
TAP	39	48	4
STR	39	96	1
SI_	39	96	1	96	48	5
TAP	39	96	6
TAP	39	144	7
STR	39	192	1
SI_	39	192	1	96	48	3
TAP	39	192	6
TAP	39	240	4
STR	39	288	1
SI_	39	288	1	96	48	5
TAP	39	288	6
TAP	39	336	7
STR	40	0	1
SI_	40	0	1	96	48	3
TAP	40	0	6
TAP	40	48	4
STR	40	96	1
SI_	40	96	1	96	48	5
TAP	40	96	6
TAP	40	144	7
TAP	40	192	1
TAP	40	192	6
TAP	40	240	4
TAP	40	288	6
TAP	40	336	0
TAP	40	336	7
TAP	41	0	1
STR	41	0	6
SI_	41	0	6	96	48	4
TAP	41	48	3
TAP	41	96	1
STR	41	96	6
SI_	41	96	6	96	48	2
TAP	41	144	0
TAP	41	192	1
STR	41	192	6
SI_	41	192	6	96	48	4
TAP	41	240	3
TAP	41	288	1
TAP	41	288	6
TAP	41	336	0
TAP	41	360	0
TAP	42	0	7
TAP	42	24	7
TAP	42	72	2
TAP	42	96	4
TAP	42	120	5
TAP	42	144	3
TAP	42	168	2
STR	42	192	1
SI_	42	192	1	96	48	5
TAP	42	192	6
TAP	42	240	0
TAP	42	240	7
BRK	42	288	1
BRK	42	288	5
STR	43	0	0
SI_	43	0	0	96	48	4
TAP	43	48	7
TAP	43	96	0
STR	43	96	6
SI_	43	96	6	96	48	3
TAP	43	144	7
STR	43	192	0
SI_	43	192	0	96	48	4
TAP	43	192	6
TAP	43	240	7
TAP	43	288	0
TAP	43	336	6
STR	44	0	4
SI_	44	0	4	96	48	0
TAP	44	48	3
STR	44	96	2
SI_	44	96	2	96	48	7
TAP	44	96	4
TAP	44	144	3
TAP	44	192	2
STR	44	192	4
SI_	44	192	4	96	48	0
TAP	44	240	3
TAP	44	288	4
STR	45	0	2
SI_	45	0	2	96	48	7
STR	45	0	5
SI_	45	0	5	96	48	0
TAP	45	48	3
TAP	45	72	4
TAP	45	96	2
TAP	45	96	5
TAP	45	192	3
TAP	45	240	2
TAP	45	240	4
STR	45	288	1
SV_	45	288	1	96	48	6
STR	45	288	5
SV_	45	288	5	96	48	2
TAP	46	0	1
TAP	46	0	5
STR	46	96	3
SV_	46	96	3	96	48	0
STR	46	96	7
SV_	46	96	7	96	48	4
STR	46	192	3
SI_	46	192	3	96	24	1
STR	46	192	7
SI_	46	192	7	96	24	5
TAP	46	288	3
TAP	46	288	7
STR	47	0	1
SV_	47	0	1	96	48	4
TAP	47	0	5
TAP	47	48	0
STR	47	48	4
SCL	47	48	4	96	48	1
TAP	47	96	1
TAP	47	144	7
STR	47	192	7
SI_	47	192	7	96	48	3
TAP	47	240	0
TAP	47	240	7
TAP	47	288	0
TAP	47	336	0
TAP	48	0	2
HLD	48	0	6	24
TAP	48	8	3
TAP	48	16	4
TAP	48	24	5
HLD	48	72	1	24
TAP	48	72	5
TAP	48	80	4
TAP	48	88	3
TAP	48	96	2
TAP	48	144	2
HLD	48	144	6	24
TAP	48	152	3
TAP	48	160	4
TAP	48	168	5
TAP	48	192	6
TAP	48	216	6
TAP	48	240	1
STR	48	288	1
SV_	48	288	1	96	48	4
STR	48	288	6
SV_	48	288	6	96	48	3
STR	48	336	3
SCR	48	336	3	96	48	7
STR	48	336	4
SCL	48	336	4	96	48	0
TAP	49	144	1
TAP	49	144	6
STR	49	192	0
SI_	49	192	0	96	48	4
TAP	49	192	5
TAP	49	240	2
TAP	49	240	7
TAP	49	288	0
TAP	49	288	5
TAP	49	336	7
HLD	50	0	1	24
TAP	50	0	5
TAP	50	8	4
TAP	50	16	3
TAP	50	24	2
TAP	50	72	2
HLD	50	72	6	24
TAP	50	80	3
TAP	50	88	4
TAP	50	96	5
HLD	50	144	1	24
TAP	50	144	5
TAP	50	152	4
TAP	50	160	3
TAP	50	168	2
TAP	50	192	1
TAP	50	216	1
TAP	50	240	6
STR	50	288	2
SV_	50	288	2	96	48	7
STR	50	288	5
SV_	50	288	5	96	48	0
STR	50	336	0
SCL	50	336	0	96	48	4
STR	50	336	7
SCR	50	336	7	96	48	3
TAP	51	144	2
STR	51	144	6
SI_	51	144	6	96	48	3
STR	51	192	1
SI_	51	192	1	96	48	4
TAP	51	192	5
TAP	51	240	6
STR	51	288	1
SXR	51	288	1	96	96	6
TAP	51	336	7
TAP	52	0	1
STR	52	144	3
SI_	52	144	3	96	48	1
TAP	52	144	4
TAP	52	168	5
STR	52	192	4
SI_	52	192	4	96	48	6
TAP	52	216	2
STR	52	240	3
SI_	52	240	3	96	48	7
TAP	52	240	5
TAP	52	288	4
TAP	52	336	3
STR	53	48	1
SV_	53	48	1	96	48	4
STR	53	48	5
SV_	53	48	5	96	48	0
STR	53	96	0
SCL	53	96	0	96	48	5
STR	53	96	4
SCL	53	96	4	96	48	1
TAP	53	288	3
TAP	53	288	4
TAP	53	336	0
TAP	53	336	7
TAP	54	0	1
TAP	54	0	6
BRK	54	48	1
BRK	54	48	6
TAP	54	192	0
TAP	54	192	7
TAP	54	240	0
TAP	54	240	7
TAP	54	288	3
TAP	54	288	4
STR	55	0	1
SI_	55	0	1	96	240	5
TAP	56	0	1
TAP	56	24	1
TAP	56	48	2
TAP	56	72	2
TAP	56	96	0
TAP	56	96	3
STR	56	144	6
SF_	56	144	6	96	24	2
TAP	56	168	6
TAP	56	192	5
TAP	56	216	5

T_REC_TAP	469
T_REC_BRK	10
T_REC_XTP	0
T_REC_HLD	42
T_REC_XHO	0
T_REC_STR	126
T_REC_BST	1
T_REC_XST	0
T_REC_TTP	0
T_REC_THO	0
T_REC_SLD	129
T_REC_ALL	777
T_NUM_TAP	595
T_NUM_BRK	11
T_NUM_HLD	42
T_NUM_SLD	129
T_NUM_ALL	777
T_JUDGE_TAP	606
T_JUDGE_HLD	48
T_JUDGE_SLD	129
T_JUDGE_ALL	783
TTM_EACHPAIRS	161
TTM_SCR_TAP	297500
TTM_SCR_BRK	28600
TTM_SCR_HLD	42000
TTM_SCR_SLD	193500
TTM_SCR_ALL	561600
TTM_SCR_S	543700
TTM_SCR_SS	560500
TTM_RAT_ACV	10019

