VERSION	0.00.00	1.03.00
FES_MODE	0
BPM_DEF	140.000	140.000	140.000	140.000
MET_DEF	4	4
RESOLUTION	384
CLK_DEF	384
COMPATIBLE_CODE	MA2

BPM	0	0	140.000
MET	0	0	4	4

TAP	1	0	5
TAP	1	96	5
TAP	1	192	5
TAP	1	288	5
TAP	2	0	1
TAP	2	96	0
TAP	2	144	1
TAP	2	240	7
TAP	2	288	5
TAP	2	288	6
TAP	3	0	1
TAP	3	48	1
HLD	3	96	6	96
TAP	3	192	5
TAP	3	288	0
TAP	3	336	0
HLD	4	0	7	96
TAP	4	48	6
TAP	4	96	5
HLD	4	192	0	48
HLD	4	192	4	48
HLD	4	288	3	48
HLD	4	288	7	48
TAP	5	0	6
TAP	5	48	6
HLD	5	96	1	96
TAP	5	192	2
TAP	5	288	7
TAP	5	336	7
HLD	6	0	0	96
TAP	6	48	1
TAP	6	96	2
BRK	6	144	1
BRK	6	144	6
TAP	6	288	0
TAP	6	288	7
TAP	6	336	2
TAP	6	336	5
TAP	7	0	1
TAP	7	48	1
HLD	7	96	5	96
HLD	7	192	2	96
HLD	7	288	4	96
TAP	7	336	3
HLD	8	0	3	96
HLD	8	96	6	192
HLD	8	144	5	144
TAP	9	0	6
TAP	9	48	6
HLD	9	96	1	96
HLD	9	192	2	96
TAP	9	288	1
TAP	9	336	0
TAP	10	0	0
TAP	10	0	7
TAP	10	72	5
TAP	10	72	6
TAP	10	144	3
TAP	10	144	4
TAP	10	192	5
TAP	10	192	6
TAP	10	288	1
TAP	10	288	7
TAP	10	336	0
TAP	10	336	2
TAP	11	0	1
TAP	11	0	6
HLD	11	96	2	96
HLD	11	192	5	96
HLD	11	288	3	96
TAP	11	336	4
HLD	12	0	4	96
HLD	12	96	1	192
HLD	12	144	2	144
TAP	13	0	1
TAP	13	48	1
HLD	13	96	5	96
HLD	13	192	1	96
HLD	13	288	7	96
TAP	13	336	2
HLD	14	0	3	96
TAP	14	96	4
TAP	14	192	0
TAP	14	192	7
TAP	14	240	2
TAP	14	240	5
BRK	14	288	2
BRK	14	288	5
HLD	15	0	6	96
STR	15	96	1
SCL	15	96	1	96	96	6
HLD	15	144	2	192
HLD	15	336	6	48
TAP	16	48	0
TAP	16	96	0
TAP	16	144	0
STR	16	192	7
SI_	16	192	7	96	96	3
HLD	17	0	1	96
TAP	17	96	6
HLD	17	144	5	192
HLD	17	336	1	48
TAP	18	48	2
TAP	18	48	7
TAP	18	240	0
TAP	18	240	5
HLD	19	0	1	96
STR	19	96	6
SCR	19	96	6	96	96	1
HLD	19	144	5	192
HLD	19	336	1	48
TAP	20	48	7
TAP	20	96	7
TAP	20	144	7
STR	20	192	0
SI_	20	192	0	96	96	4
HLD	21	0	6	96
TAP	21	96	1
HLD	21	144	2	192
HLD	21	240	5	96
TAP	22	0	6
HLD	22	48	0	48
HLD	22	48	5	48
HLD	22	240	2	48
HLD	22	240	7	48
STR	23	0	2
SI_	23	0	2	96	96	7
TAP	23	192	0
TAP	23	240	0
TAP	23	336	1
TAP	24	0	1
TAP	24	96	0
TAP	24	144	0
TAP	24	192	0
TAP	24	192	7
TAP	24	264	6
TAP	24	264	7
BRK	24	336	0
BRK	24	336	7
STR	25	0	5
SI_	25	0	5	96	96	0
TAP	25	192	7
TAP	25	240	7
TAP	25	336	6
TAP	26	0	6
TAP	26	96	0
BRK	26	192	1
BRK	26	192	6
BRK	26	240	1
BRK	26	240	6
STR	27	0	3
SI_	27	0	3	96	96	7
TAP	27	192	0
TAP	27	240	0
TAP	27	336	1
TAP	28	0	1
TAP	28	96	0
TAP	28	144	0
TAP	28	192	0
TAP	28	192	7
TAP	28	240	6
TAP	28	264	5
TAP	28	312	1
TAP	28	336	2
STR	29	0	4
SI_	29	0	4	96	96	0
TAP	29	192	7
TAP	29	240	7
TAP	29	336	6
TAP	30	0	6
TAP	30	96	7
TAP	30	192	0
TAP	30	192	7
TAP	30	240	1
TAP	30	240	6
TAP	30	288	2
TAP	30	288	5
TAP	30	336	1
TAP	30	336	6
HLD	31	0	1	96
TAP	31	96	0
HLD	31	192	6	96
TAP	31	240	5
TAP	31	288	4
HLD	31	336	3	96
TAP	32	0	4
TAP	32	48	5
STR	32	192	2
SI_	32	192	2	96	96	6
HLD	33	0	1	96
TAP	33	96	2
HLD	33	192	6	96
TAP	33	240	5
TAP	33	288	4
HLD	33	336	3	96
TAP	34	0	4
TAP	34	48	5
STR	34	192	5
SI_	34	192	5	96	96	1
HLD	35	0	6	96
TAP	35	96	7
HLD	35	192	2	96
TAP	35	240	1
TAP	35	288	0
HLD	35	336	7	96
TAP	36	0	0
TAP	36	48	1
HLD	36	96	2	96
STR	36	192	1
SI_	36	192	1	96	96	6
HLD	37	0	1	96
TAP	37	96	0
HLD	37	192	5	96
TAP	37	240	4
TAP	37	288	3
HLD	37	336	2	96
TAP	38	0	3
TAP	38	48	4
HLD	38	96	5	96
STR	38	192	6
SI_	38	192	6	96	96	1
TAP	39	0	7
TAP	39	96	2
TAP	39	144	1
TAP	39	144	2
TAP	39	240	0
TAP	39	240	7
TAP	39	288	7
TAP	39	336	5
TAP	40	0	5
TAP	40	0	6
TAP	40	96	1
TAP	40	144	1
TAP	40	144	2
TAP	40	240	0
TAP	40	240	7
TAP	40	288	6
TAP	40	336	6
TAP	41	0	5
TAP	41	0	6
TAP	41	96	7
TAP	41	144	5
TAP	41	240	0
TAP	41	288	1
TAP	41	336	2
HLD	42	0	1	288
TAP	42	96	0
BRK	42	288	0
TAP	43	0	1
TAP	43	0	6
TAP	43	96	7
TAP	43	144	0
TAP	43	144	5
TAP	43	192	6
TAP	43	240	1
TAP	43	240	6
TAP	43	288	0
TAP	43	336	0
TAP	44	0	1
TAP	44	0	7
TAP	44	48	6
TAP	44	96	6
TAP	44	96	7
TAP	44	144	5
TAP	44	144	7
TAP	44	192	0
TAP	44	240	1
TAP	44	240	6
TAP	44	288	7
TAP	44	336	0
TAP	44	336	1
TAP	45	0	0
TAP	45	0	2
TAP	45	48	0
TAP	45	96	1
TAP	45	96	6
TAP	45	192	5
TAP	45	288	5
TAP	46	0	0
TAP	46	0	7
TAP	46	192	1
TAP	46	192	5
BRK	46	288	3
BRK	46	288	7
HLD	47	0	1	48
HLD	47	48	6	48
HLD	47	96	0	48
HLD	47	144	7	48
HLD	47	192	2	48
HLD	47	240	5	48
HLD	47	288	3	48
TAP	47	336	4
TAP	48	0	2
TAP	48	0	5
TAP	48	72	1
TAP	48	72	6
TAP	48	144	0
TAP	48	144	7
TAP	48	192	0
TAP	48	288	2
TAP	48	288	5
TAP	48	336	2
TAP	48	336	5
HLD	49	0	2	48
HLD	49	48	4	48
HLD	49	96	3	48
HLD	49	144	5	48
HLD	49	192	1	48
HLD	49	240	0	48
HLD	49	288	7	48
TAP	49	336	0
TAP	50	0	0
TAP	50	0	7
TAP	50	72	1
TAP	50	72	2
TAP	50	144	3
TAP	50	144	4
HLD	50	192	5	144
TAP	50	288	4
TAP	50	336	4
HLD	51	0	2	48
HLD	51	48	3	48
TAP	51	96	2
TAP	51	144	0
TAP	51	144	1
BRK	51	192	0
BRK	51	192	7
HLD	51	240	6	48
HLD	51	288	3	48
HLD	51	336	4	48
HLD	52	0	1	48
HLD	52	48	7	48
HLD	52	96	2	48
HLD	52	144	5	48
HLD	52	192	0	48
HLD	52	240	7	48
HLD	52	288	6	48
HLD	52	337	5	47
TAP	53	0	6
HLD	53	96	2	48
HLD	53	144	7	48
HLD	53	192	4	48
HLD	53	240	1	48
HLD	53	288	6	48
TAP	53	336	1
HLD	54	0	0	96
HLD	54	0	7	96
TAP	54	192	1
TAP	54	192	6
HLD	54	240	2	48
HLD	54	240	5	48

T_REC_TAP	218
T_REC_BRK	15
T_REC_XTP	0
T_REC_HLD	94
T_REC_XHO	0
T_REC_STR	12
T_REC_BST	0
T_REC_XST	0
T_REC_TTP	0
T_REC_THO	0
T_REC_SLD	12
T_REC_ALL	351
T_NUM_TAP	230
T_NUM_BRK	15
T_NUM_HLD	94
T_NUM_SLD	12
T_NUM_ALL	351
T_JUDGE_TAP	245
T_JUDGE_HLD	162
T_JUDGE_SLD	12
T_JUDGE_ALL	419
TTM_EACHPAIRS	62
TTM_SCR_TAP	115000
TTM_SCR_BRK	39000
TTM_SCR_HLD	94000
TTM_SCR_SLD	18000
TTM_SCR_ALL	266000
TTM_SCR_S	256600
TTM_SCR_SS	264500
TTM_RAT_ACV	10056

