VERSION	0.00.00	1.03.00
FES_MODE	0
BPM_DEF	140.000	140.000	140.000	140.000
MET_DEF	4	4
RESOLUTION	384
CLK_DEF	384
COMPATIBLE_CODE	MA2

BPM	0	0	140.000
MET	0	0	4	4

TAP	2	0	1
TAP	2	96	6
STR	2	192	0
SI_	2	192	0	96	48	3
TAP	3	0	6
TAP	3	48	5
TAP	3	96	5
TAP	3	96	6
TAP	3	192	0
TAP	3	240	7
TAP	3	288	6
TAP	3	288	7
TAP	3	336	7
TAP	4	0	0
TAP	4	0	7
TAP	4	96	5
TAP	4	96	6
TAP	4	144	4
TAP	4	192	2
TAP	4	192	3
TAP	4	288	2
TAP	4	288	3
TAP	5	0	1
TAP	5	48	2
TAP	5	96	1
TAP	5	96	2
TAP	5	192	7
TAP	5	240	0
TAP	5	288	0
TAP	5	288	1
TAP	5	336	0
TAP	6	0	0
TAP	6	0	7
TAP	6	96	1
TAP	6	96	2
TAP	6	144	0
TAP	6	192	4
TAP	6	240	3
TAP	6	240	4
TAP	7	48	2
TAP	7	96	3
TAP	7	144	4
TAP	7	192	5
TAP	7	240	5
TAP	7	288	4
TAP	7	336	3
HLD	8	0	2	96
TAP	8	96	4
TAP	8	144	5
TAP	8	192	6
TAP	8	240	6
TAP	8	288	5
TAP	8	336	4
HLD	9	0	3	96
TAP	9	96	5
TAP	9	144	6
TAP	9	192	7
TAP	9	240	7
TAP	9	288	6
TAP	9	336	5
TAP	10	0	4
TAP	10	72	2
TAP	10	72	3
TAP	10	144	4
TAP	10	144	5
TAP	10	192	3
TAP	10	240	2
TAP	10	288	3
TAP	10	336	3
TAP	10	336	4
TAP	11	0	5
TAP	11	96	3
TAP	11	96	4
TAP	11	144	2
TAP	11	192	6
TAP	11	240	4
TAP	11	336	1
TAP	12	0	3
TAP	12	48	3
TAP	12	48	4
TAP	12	144	6
TAP	12	192	4
TAP	12	240	3
TAP	12	240	4
TAP	13	0	0
TAP	13	48	1
TAP	13	96	7
TAP	13	144	6
TAP	13	192	1
TAP	13	216	0
TAP	13	264	0
TAP	13	288	1
TAP	13	336	6
TAP	14	0	7
TAP	14	48	4
TAP	14	192	0
TAP	14	192	1
TAP	14	240	5
TAP	14	240	6
TAP	14	288	2
TAP	14	288	3
HLD	15	0	0	96
HLD	15	0	6	288
HLD	15	144	4	336
HLD	15	336	2	336
TAP	16	192	0
TAP	16	240	0
TAP	16	288	0
HLD	17	0	2	96
HLD	17	0	4	240
HLD	17	144	6	192
TAP	17	336	5
TAP	18	48	3
TAP	18	48	7
TAP	18	144	1
TAP	18	240	3
TAP	18	240	7
TAP	18	336	5
HLD	19	0	1	288
HLD	19	0	7	96
HLD	19	144	3	336
HLD	19	336	5	336
TAP	20	192	7
TAP	20	240	7
TAP	20	288	7
HLD	21	0	3	144
HLD	21	0	5	96
HLD	21	144	1	96
BRK	21	192	0
BRK	21	240	0
TAP	21	336	2
TAP	22	48	0
TAP	22	48	4
TAP	22	144	6
TAP	22	240	0
TAP	22	240	4
TAP	22	336	2
TAP	23	48	1
TAP	23	72	1
TAP	23	96	2
TAP	23	192	0
TAP	23	216	0
TAP	23	240	1
TAP	23	336	7
TAP	23	360	7
TAP	24	0	0
TAP	24	96	6
TAP	24	120	6
TAP	24	144	7
TAP	24	192	1
TAP	24	192	5
TAP	24	264	2
TAP	24	264	6
TAP	24	336	1
TAP	24	336	5
TAP	25	96	5
TAP	25	120	5
TAP	25	144	6
TAP	25	240	4
TAP	25	264	4
TAP	25	288	5
TAP	26	0	3
TAP	26	24	3
TAP	26	48	4
TAP	26	192	3
TAP	26	192	7
TAP	26	240	0
TAP	26	240	4
TAP	26	336	4
TAP	27	48	6
TAP	27	72	6
TAP	27	96	5
TAP	27	192	7
TAP	27	216	7
TAP	27	240	6
TAP	27	336	0
TAP	27	360	0
TAP	28	0	7
TAP	28	96	1
TAP	28	120	1
TAP	28	144	0
TAP	28	192	2
TAP	28	192	6
TAP	28	264	1
TAP	28	264	5
TAP	28	336	2
TAP	28	336	6
TAP	29	96	2
TAP	29	120	2
TAP	29	144	1
TAP	29	240	3
TAP	29	264	3
TAP	29	288	2
TAP	30	0	4
TAP	30	24	4
TAP	30	48	3
TAP	30	192	0
TAP	30	192	4
TAP	30	240	3
TAP	30	240	7
TAP	30	288	1
TAP	30	288	5
TAP	30	336	2
TAP	30	336	6
STR	31	0	0
SI_	31	0	0	96	48	5
TAP	31	96	7
TAP	31	144	7
STR	31	192	7
SI_	31	192	7	96	48	2
TAP	31	288	1
STR	31	336	1
SI_	31	336	1	96	48	4
HLD	32	48	6	96
STR	32	192	6
SI_	32	192	6	96	48	3
STR	33	0	1
SI_	33	0	1	96	48	5
TAP	33	96	6
TAP	33	144	6
STR	33	192	6
SI_	33	192	6	96	48	2
TAP	33	288	1
TAP	33	336	1
TAP	34	48	0
TAP	34	72	7
TAP	34	96	6
TAP	34	144	7
TAP	34	168	0
STR	34	192	1
SCL	34	192	1	96	48	6
STR	35	0	7
SI_	35	0	7	96	48	2
TAP	35	96	0
TAP	35	144	0
STR	35	192	0
SI_	35	192	0	96	48	5
TAP	35	288	6
STR	35	336	6
SI_	35	336	6	96	48	3
HLD	36	48	1	96
STR	36	192	1
SI_	36	192	1	96	48	4
STR	37	0	7
SI_	37	0	7	96	48	3
TAP	37	96	0
TAP	37	144	0
STR	37	192	0
SI_	37	192	0	96	48	4
TAP	37	288	7
STR	37	336	7
SI_	37	336	7	96	48	3
TAP	38	48	0
STR	38	96	0
SI_	38	96	0	96	48	4
TAP	38	192	7
STR	38	240	7
SI_	38	240	7	96	48	3
TAP	38	336	0
TAP	39	48	0
TAP	39	96	0
TAP	39	96	1
TAP	39	144	1
TAP	39	192	1
TAP	39	192	2
TAP	39	240	2
TAP	39	288	2
TAP	39	288	3
TAP	39	336	3
TAP	40	0	3
TAP	40	0	7
TAP	40	48	7
TAP	40	96	6
TAP	40	96	7
TAP	40	144	6
TAP	40	192	5
TAP	40	192	6
TAP	40	240	5
TAP	40	288	4
TAP	40	288	5
TAP	40	336	2
TAP	40	336	3
TAP	41	48	2
TAP	41	96	2
TAP	41	96	3
TAP	41	144	3
TAP	41	192	3
TAP	41	192	4
TAP	41	240	4
TAP	41	288	4
TAP	41	288	5
TAP	41	336	5
TAP	42	0	5
TAP	42	0	6
TAP	42	48	6
TAP	42	72	6
TAP	42	96	0
TAP	42	144	0
TAP	42	168	0
TAP	42	192	7
TAP	42	240	7
TAP	42	264	7
BRK	42	288	1
TAP	43	0	6
TAP	43	48	2
TAP	43	96	6
TAP	43	144	1
TAP	43	192	5
TAP	43	240	1
HLD	43	288	7	96
TAP	43	336	1
TAP	44	0	1
TAP	44	48	5
TAP	44	96	1
TAP	44	144	6
TAP	44	192	2
TAP	44	240	6
HLD	44	288	0	96
TAP	45	0	7
TAP	45	48	2
TAP	45	96	7
TAP	45	144	0
TAP	45	192	5
TAP	45	240	0
BRK	45	288	3
HLD	46	0	0	96
HLD	46	0	7	96
TAP	46	192	0
TAP	46	192	7
TAP	46	288	0
TAP	46	288	7
TAP	47	48	1
TAP	47	96	4
TAP	47	144	3
TAP	47	192	6
TAP	47	240	3
TAP	47	288	4
TAP	47	336	1
HLD	48	0	1	144
TAP	48	72	2
TAP	48	144	2
TAP	48	192	0
TAP	48	240	7
TAP	48	288	6
TAP	48	336	6
TAP	48	336	7
TAP	49	0	7
TAP	49	48	0
TAP	49	96	1
TAP	49	144	0
TAP	49	144	1
TAP	49	192	7
TAP	49	240	0
TAP	49	288	4
TAP	49	336	3
HLD	50	0	6	144
TAP	50	72	5
TAP	50	144	5
TAP	50	192	2
TAP	50	240	3
TAP	50	288	4
TAP	50	336	0
TAP	50	336	7
TAP	51	0	5
TAP	51	48	4
TAP	51	96	3
TAP	51	144	0
TAP	51	144	7
TAP	51	192	2
TAP	51	240	3
TAP	51	288	4
TAP	51	336	0
TAP	51	336	7
HLD	52	0	5	72
HLD	52	72	4	72
HLD	52	144	3	48
TAP	52	192	2
TAP	52	240	3
TAP	52	288	5
TAP	52	336	4
TAP	53	48	6
TAP	53	96	5
TAP	53	144	6
TAP	53	192	3
TAP	53	192	7
TAP	53	240	1
TAP	53	288	2
TAP	53	336	1
TAP	54	0	0
TAP	54	0	4
TAP	54	48	5
TAP	54	192	0
TAP	54	192	7
TAP	54	240	0
TAP	54	240	7
TAP	54	288	3
TAP	54	288	4
STR	55	0	1
SI_	55	0	1	96	480	5
STR	56	192	6
SI_	56	192	6	96	24	2
TAP	56	240	6

T_REC_TAP	333
T_REC_BRK	4
T_REC_XTP	0
T_REC_HLD	27
T_REC_XHO	0
T_REC_STR	19
T_REC_BST	0
T_REC_XST	0
T_REC_TTP	0
T_REC_THO	0
T_REC_SLD	19
T_REC_ALL	402
T_NUM_TAP	352
T_NUM_BRK	4
T_NUM_HLD	27
T_NUM_SLD	19
T_NUM_ALL	402
T_JUDGE_TAP	356
T_JUDGE_HLD	89
T_JUDGE_SLD	19
T_JUDGE_ALL	464
TTM_EACHPAIRS	65
TTM_SCR_TAP	176000
TTM_SCR_BRK	10400
TTM_SCR_HLD	27000
TTM_SCR_SLD	28500
TTM_SCR_ALL	241900
TTM_SCR_S	234300
TTM_SCR_SS	241500
TTM_RAT_ACV	10016

