VERSION	0.00.00	1.03.00
FES_MODE	0
BPM_DEF	140.000	140.000	140.000	140.000
MET_DEF	4	4
RESOLUTION	384
CLK_DEF	384
COMPATIBLE_CODE	MA2

BPM	0	0	140.000
MET	0	0	4	4

TAP	1	0	5
TAP	1	96	5
TAP	1	192	5
TAP	1	288	5
TAP	2	0	1
TAP	2	144	1
TAP	2	240	1
BRK	2	288	0
TAP	2	288	2
TAP	3	0	6
TAP	3	96	6
TAP	3	192	1
TAP	3	288	1
TAP	4	0	5
TAP	4	96	5
TAP	4	192	2
TAP	4	192	5
TAP	4	288	2
TAP	4	288	5
TAP	5	0	2
TAP	5	96	2
TAP	5	192	5
TAP	5	289	5
TAP	6	0	1
TAP	6	96	6
TAP	6	144	6
TAP	6	144	7
TAP	6	288	1
TAP	6	336	1
TAP	7	0	0
TAP	7	0	1
TAP	7	96	2
TAP	7	192	7
TAP	7	288	2
TAP	8	0	6
TAP	8	96	5
TAP	8	192	0
TAP	8	288	5
TAP	9	0	1
TAP	9	96	0
TAP	9	192	7
TAP	9	288	7
TAP	10	0	0
TAP	10	0	1
TAP	10	72	2
TAP	10	72	7
TAP	10	144	6
TAP	10	192	0
TAP	10	192	7
TAP	10	288	1
TAP	10	336	2
TAP	10	336	5
TAP	11	0	2
TAP	11	0	5
TAP	11	96	0
TAP	11	192	2
TAP	11	288	0
TAP	12	0	3
TAP	12	96	7
TAP	12	192	5
TAP	12	288	7
TAP	13	0	3
TAP	13	0	4
TAP	13	96	1
TAP	13	192	0
TAP	13	288	7
TAP	14	0	6
TAP	14	96	5
TAP	14	192	0
TAP	14	192	7
TAP	14	240	0
TAP	14	240	6
TAP	14	288	1
BRK	14	288	7
TAP	15	0	6
TAP	15	0	7
TAP	15	96	2
TAP	15	144	1
TAP	15	144	2
TAP	15	240	0
TAP	15	336	0
TAP	15	336	7
STR	16	96	6
SI_	16	96	6	96	96	1
TAP	17	0	0
TAP	17	0	1
TAP	17	96	5
TAP	17	144	5
TAP	17	144	6
TAP	17	240	7
TAP	17	336	0
TAP	17	336	7
TAP	18	48	0
TAP	18	48	5
TAP	18	240	2
TAP	18	240	7
TAP	19	0	2
TAP	19	0	3
TAP	19	96	6
TAP	19	144	5
TAP	19	144	6
TAP	19	240	4
TAP	19	336	2
TAP	19	336	5
TAP	20	48	3
TAP	20	144	7
TAP	20	240	3
TAP	20	336	2
TAP	21	0	1
TAP	21	0	3
TAP	21	96	6
TAP	21	144	5
TAP	21	144	7
TAP	22	0	0
TAP	22	48	1
BRK	22	48	7
TAP	22	144	7
BRK	22	240	0
TAP	22	240	6
TAP	23	0	0
TAP	23	96	1
TAP	23	192	2
TAP	23	288	1
TAP	24	0	5
TAP	24	96	6
TAP	24	192	7
TAP	24	264	7
TAP	24	336	0
TAP	25	0	0
TAP	25	0	7
TAP	25	96	6
TAP	25	192	5
TAP	25	288	6
TAP	26	0	2
TAP	26	96	1
TAP	26	192	0
BRK	26	240	1
BRK	26	240	6
TAP	27	0	7
TAP	27	96	4
TAP	27	192	1
TAP	27	288	6
TAP	28	0	3
TAP	28	96	0
TAP	28	192	1
TAP	28	264	2
TAP	28	336	2
TAP	29	0	1
TAP	29	0	6
TAP	29	96	0
TAP	29	192	3
TAP	29	288	6
TAP	30	0	1
TAP	30	96	4
TAP	30	192	0
TAP	30	192	7
TAP	30	240	0
TAP	30	240	7
TAP	30	288	6
TAP	30	288	7
TAP	30	336	0
TAP	30	336	7
HLD	31	0	1	96
TAP	31	96	0
HLD	31	192	6	96
TAP	31	288	7
HLD	31	336	0	96
STR	32	192	2
SI_	32	192	2	96	96	6
HLD	33	0	1	96
TAP	33	96	2
HLD	33	192	6	96
TAP	33	288	5
HLD	33	336	0	96
STR	34	192	5
SI_	34	192	5	96	96	1
HLD	35	0	6	96
TAP	35	96	7
HLD	35	192	2	96
TAP	35	288	3
HLD	35	336	4	96
STR	36	192	6
SI_	36	192	6	96	96	3
HLD	37	0	1	96
TAP	37	96	0
HLD	37	192	5	96
TAP	37	288	4
HLD	37	336	3	96
STR	38	192	1
SI_	38	192	1	96	96	4
TAP	39	0	7
TAP	39	96	2
TAP	39	144	1
TAP	39	144	2
TAP	39	240	0
TAP	39	240	7
TAP	39	336	5
TAP	40	0	5
TAP	40	0	6
TAP	40	96	1
TAP	40	144	1
TAP	40	144	2
TAP	40	240	0
TAP	40	240	7
TAP	40	336	6
TAP	41	0	5
TAP	41	0	6
TAP	41	96	7
TAP	41	144	0
TAP	41	144	7
TAP	41	240	6
TAP	41	336	1
HLD	42	0	1	288
TAP	42	96	0
TAP	42	288	0
TAP	43	0	1
TAP	43	0	6
TAP	43	96	7
TAP	43	144	0
TAP	43	144	5
TAP	43	240	1
TAP	43	240	6
TAP	43	336	0
TAP	44	0	1
TAP	44	0	7
TAP	44	96	6
TAP	44	96	7
TAP	44	144	5
TAP	44	144	7
TAP	44	240	1
TAP	44	240	6
TAP	44	336	0
TAP	44	336	1
TAP	45	0	0
TAP	45	0	2
TAP	45	96	1
TAP	45	96	6
BRK	46	0	0
BRK	46	0	7
TAP	46	192	0
TAP	46	192	1
TAP	46	288	6
TAP	46	288	7
TAP	47	0	0
TAP	47	96	2
TAP	47	192	0
TAP	47	288	3
TAP	48	0	7
TAP	48	72	6
TAP	48	144	5
TAP	48	144	7
TAP	48	192	6
TAP	48	288	0
TAP	49	0	7
TAP	49	96	5
TAP	49	192	7
TAP	49	288	4
TAP	50	0	0
TAP	50	72	1
TAP	50	72	7
TAP	50	144	0
TAP	50	144	6
TAP	50	288	2
TAP	50	336	2
HLD	51	0	1	96
TAP	51	144	1
TAP	51	144	6
TAP	51	192	0
TAP	51	192	7
TAP	51	288	7
TAP	52	0	6
TAP	52	96	4
TAP	52	192	6
TAP	52	288	3
TAP	53	0	3
TAP	53	0	7
TAP	53	96	1
TAP	53	192	3
TAP	53	288	1
TAP	54	0	4
TAP	54	192	0
TAP	54	192	4
TAP	54	240	3
TAP	54	240	7
STR	54	288	6
SCR	54	288	6	96	96	1

T_REC_TAP	252
T_REC_BRK	8
T_REC_XTP	0
T_REC_HLD	14
T_REC_XHO	0
T_REC_STR	6
T_REC_BST	0
T_REC_XST	0
T_REC_TTP	0
T_REC_THO	0
T_REC_SLD	6
T_REC_ALL	286
T_NUM_TAP	258
T_NUM_BRK	8
T_NUM_HLD	14
T_NUM_SLD	6
T_NUM_ALL	286
T_JUDGE_TAP	266
T_JUDGE_HLD	32
T_JUDGE_SLD	6
T_JUDGE_ALL	304
TTM_EACHPAIRS	64
TTM_SCR_TAP	129000
TTM_SCR_BRK	20800
TTM_SCR_HLD	14000
TTM_SCR_SLD	9000
TTM_SCR_ALL	172800
TTM_SCR_S	166850
TTM_SCR_SS	172000
TTM_RAT_ACV	10046

