VERSION	0.00.00	1.03.00
FES_MODE	0
BPM_DEF	140.000	140.000	140.000	140.000
MET_DEF	4	4
RESOLUTION	384
CLK_DEF	384
COMPATIBLE_CODE	MA2

BPM	0	0	140.000
MET	0	0	4	4

TAP	2	0	0
TAP	2	96	0
TAP	2	192	0
TAP	2	288	0
TAP	2	288	7
TAP	3	0	6
TAP	3	96	6
TAP	3	192	5
TAP	3	288	5
TAP	4	0	4
TAP	4	96	4
TAP	4	192	2
TAP	4	192	5
TAP	4	288	2
TAP	4	288	5
TAP	5	0	1
TAP	5	96	1
TAP	5	192	0
TAP	5	288	0
TAP	6	0	7
TAP	6	96	0
TAP	6	96	7
TAP	6	144	0
TAP	6	144	7
TAP	6	288	1
TAP	7	0	1
TAP	7	96	6
TAP	7	192	5
TAP	7	288	5
TAP	8	0	4
TAP	8	96	4
TAP	8	192	3
TAP	8	192	4
TAP	8	288	3
TAP	8	288	4
TAP	9	0	2
TAP	9	96	2
TAP	9	192	1
TAP	9	288	1
TAP	10	0	0
TAP	10	192	0
TAP	10	288	7
TAP	10	336	7
TAP	11	0	7
TAP	11	96	1
TAP	11	192	2
TAP	11	288	2
TAP	12	0	3
TAP	12	96	3
TAP	12	192	2
TAP	12	288	1
TAP	12	288	6
TAP	13	96	6
TAP	13	192	5
TAP	13	288	5
TAP	14	0	4
TAP	14	96	4
TAP	14	192	3
TAP	14	192	4
TAP	14	288	3
TAP	14	288	4
STR	15	0	1
SI_	15	0	1	96	192	4
TAP	16	192	5
TAP	16	288	5
STR	17	0	5
SI_	17	0	5	96	192	0
HLD	18	96	0	192
STR	19	0	7
SI_	19	0	7	96	192	2
TAP	20	192	3
TAP	20	288	3
STR	21	0	3
SI_	21	0	3	96	192	6
HLD	22	96	6	192
TAP	23	0	2
TAP	23	96	2
TAP	23	192	2
TAP	23	288	2
TAP	24	0	6
TAP	24	96	7
HLD	24	192	0	96
TAP	25	0	2
TAP	25	96	2
TAP	25	192	2
TAP	25	288	2
TAP	26	0	1
TAP	26	96	0
TAP	26	192	0
TAP	26	192	7
TAP	26	240	0
TAP	26	240	7
TAP	27	0	2
TAP	27	96	2
TAP	27	192	2
TAP	27	288	2
TAP	28	0	6
TAP	28	96	7
HLD	28	192	0	96
TAP	29	0	2
TAP	29	96	2
TAP	29	192	2
TAP	29	288	2
TAP	30	0	1
TAP	30	96	0
TAP	30	192	0
TAP	30	192	7
TAP	30	288	0
TAP	30	288	7
TAP	31	0	6
TAP	31	96	6
TAP	31	96	7
TAP	31	192	6
TAP	31	288	7
HLD	31	336	7	96
TAP	33	0	1
TAP	33	96	0
TAP	33	96	1
TAP	33	192	1
TAP	33	288	0
HLD	33	336	0	96
TAP	35	0	5
TAP	35	96	4
TAP	35	96	5
TAP	35	192	5
TAP	35	288	6
HLD	35	336	6	96
TAP	37	0	2
TAP	37	96	2
TAP	37	96	3
TAP	37	192	2
TAP	37	288	1
HLD	37	336	1	96
TAP	39	96	1
TAP	39	96	6
TAP	39	288	2
TAP	39	288	5
TAP	40	96	3
TAP	40	96	4
TAP	40	288	0
TAP	40	288	7
TAP	41	96	1
TAP	41	96	6
TAP	41	288	5
HLD	42	0	6	192
BRK	42	288	7
TAP	43	96	7
TAP	43	192	6
TAP	43	288	6
TAP	43	288	7
TAP	44	96	5
TAP	44	192	4
TAP	44	288	4
TAP	44	288	5
TAP	45	96	3
TAP	45	192	2
TAP	45	288	2
TAP	45	288	3
TAP	46	0	2
TAP	46	0	3
TAP	46	192	0
TAP	46	192	1
TAP	46	288	0
TAP	46	288	1
BRK	47	0	7
TAP	47	96	6
TAP	47	192	7
TAP	47	288	6
TAP	48	0	7
TAP	48	192	5
TAP	48	288	0
TAP	48	288	5
TAP	49	0	1
TAP	49	96	0
TAP	49	192	1
TAP	49	288	0
TAP	50	0	1
TAP	50	192	2
TAP	50	288	2
TAP	50	288	7
TAP	51	96	0
TAP	51	192	0
TAP	51	192	1
TAP	51	288	0
TAP	51	288	1
TAP	52	0	1
TAP	52	96	1
TAP	52	192	6
TAP	52	288	6
TAP	53	0	7
TAP	53	96	6
TAP	53	192	7
TAP	53	288	6
TAP	54	0	6
TAP	54	192	0
TAP	54	240	0
BRK	54	288	0

T_REC_TAP	177
T_REC_BRK	3
T_REC_XTP	0
T_REC_HLD	9
T_REC_XHO	0
T_REC_STR	4
T_REC_BST	0
T_REC_XST	0
T_REC_TTP	0
T_REC_THO	0
T_REC_SLD	4
T_REC_ALL	197
T_NUM_TAP	181
T_NUM_BRK	3
T_NUM_HLD	9
T_NUM_SLD	4
T_NUM_ALL	197
T_JUDGE_TAP	184
T_JUDGE_HLD	24
T_JUDGE_SLD	4
T_JUDGE_ALL	212
TTM_EACHPAIRS	33
TTM_SCR_TAP	90500
TTM_SCR_BRK	7800
TTM_SCR_HLD	9000
TTM_SCR_SLD	6000
TTM_SCR_ALL	113300
TTM_SCR_S	109650
TTM_SCR_SS	113000
TTM_RAT_ACV	10026

