VERSION	0.00.00	1.03.00
FES_MODE	0
BPM_DEF	142.000	142.000	142.000	142.000
MET_DEF	4	4
RESOLUTION	384
CLK_DEF	384
COMPATIBLE_CODE	MA2

BPM	0	0	142.000
MET	0	0	4	4

HLD	1	0	1	192
HLD	1	192	2	192
STR	2	0	3
SXL	2	0	3	96	192	1
HLD	3	0	6	192
HLD	3	192	5	192
HLD	4	0	4	192
STR	4	192	3
SF_	4	192	3	96	48	7
BRK	5	0	1
BRK	5	0	5
TAP	5	336	2
TAP	5	336	3
TAP	6	48	5
TAP	6	48	6
STR	6	144	0
SI_	6	144	0	96	48	5
STR	6	144	1
SI_	6	144	1	96	48	4
TAP	6	192	0
TAP	6	192	1
HLD	7	0	5	288
HLD	7	192	4	96
TAP	7	336	4
TAP	7	336	5
TAP	8	48	1
TAP	8	48	2
STR	8	144	6
SI_	8	144	6	96	48	3
STR	8	144	7
SI_	8	144	7	96	48	2
TAP	8	192	6
TAP	8	192	7
STR	9	0	1
SXR	9	0	1	96	240	6
TAP	9	0	4
TAP	9	96	4
TAP	9	192	5
TAP	9	288	5
TAP	10	0	6
TAP	10	0	7
TAP	10	72	0
TAP	10	72	1
TAP	10	144	2
STR	10	144	5
SXR	10	144	5	96	240	2
HLD	11	0	1	288
HLD	11	192	6	96
TAP	11	336	1
TAP	11	336	6
TAP	12	144	3
TAP	12	144	4
TAP	12	216	3
TAP	12	240	4
TAP	12	288	4
TAP	12	336	3
STR	13	0	1
SI_	13	0	1	96	48	4
BRK	13	0	6
TAP	13	72	6
TAP	13	144	6
STR	13	192	4
SI_	13	192	4	96	48	0
TAP	13	192	5
TAP	13	264	5
TAP	13	336	5
STR	14	0	0
SI_	14	0	0	96	48	5
TAP	14	0	6
TAP	14	72	6
TAP	14	144	6
TAP	14	192	4
TAP	14	192	5
TAP	14	240	1
TAP	14	288	2
TAP	14	288	3
TAP	14	336	6
STR	15	0	4
SI_	15	0	4	96	48	0
TAP	15	0	5
TAP	15	72	5
TAP	15	144	5
STR	15	192	0
SCR	15	192	0	96	48	3
TAP	15	192	6
TAP	15	264	6
TAP	15	336	6
STR	16	0	3
SI_	16	0	3	96	48	7
TAP	16	0	5
TAP	16	72	5
TAP	16	144	5
TAP	16	192	6
TAP	16	192	7
TAP	16	240	6
TAP	16	240	7
TAP	16	288	0
TAP	16	288	5
TAP	17	0	1
STR	17	0	6
SI_	17	0	6	96	48	3
TAP	17	72	1
TAP	17	144	1
TAP	17	192	2
STR	17	192	3
SI_	17	192	3	96	48	7
TAP	17	264	2
TAP	17	336	2
TAP	18	0	1
STR	18	0	7
SI_	18	0	7	96	48	2
TAP	18	72	1
TAP	18	144	1
TAP	18	192	2
TAP	18	192	3
TAP	18	240	6
TAP	18	288	4
TAP	18	288	5
TAP	18	336	1
TAP	19	0	2
STR	19	0	3
SI_	19	0	3	96	48	7
TAP	19	72	2
TAP	19	144	2
TAP	19	192	1
STR	19	192	7
SCL	19	192	7	96	48	4
TAP	19	264	1
TAP	19	336	1
TAP	20	0	2
STR	20	0	4
SI_	20	0	4	96	48	0
TAP	20	72	2
TAP	20	144	2
TAP	20	192	0
TAP	20	192	1
TAP	20	240	1
TAP	20	264	0
TAP	20	288	2
TAP	20	312	7
TAP	20	336	3
TAP	20	360	6
BRK	21	0	4
TAP	21	0	5
TAP	21	48	2
TAP	21	72	3
TAP	21	120	1
TAP	21	144	2
TAP	21	192	0
TAP	21	192	1
TAP	21	240	5
TAP	21	264	4
TAP	21	312	6
TAP	21	336	5
TAP	22	0	6
TAP	22	0	7
TAP	22	48	2
TAP	22	72	3
TAP	22	120	5
TAP	22	144	4
TAP	22	192	2
TAP	22	192	3
TAP	22	240	7
TAP	22	288	4
TAP	22	288	5
TAP	22	336	0
TAP	23	0	2
TAP	23	0	3
TAP	23	48	5
TAP	23	72	4
TAP	23	120	6
TAP	23	144	5
TAP	23	192	6
TAP	23	192	7
TAP	23	240	2
TAP	23	264	3
TAP	23	312	1
TAP	23	336	2
TAP	24	0	0
TAP	24	0	1
TAP	24	48	5
TAP	24	72	4
TAP	24	120	2
TAP	24	144	3
TAP	24	192	1
TAP	24	192	6
TAP	24	240	7
TAP	24	264	0
TAP	24	312	3
TAP	24	336	4
TAP	24	360	3
STR	25	0	4
SCR	25	0	4	96	48	7
HLD	25	72	4	120
STR	25	192	7
SI_	25	192	7	96	48	3
HLD	25	264	7	120
STR	26	0	3
SCL	26	0	3	96	48	0
HLD	26	72	3	120
STR	26	192	0
SI_	26	192	0	96	48	4
HLD	26	264	0	120
STR	27	0	4
SI_	27	0	4	96	48	7
STR	27	96	4
SI_	27	96	4	96	48	1
STR	27	192	0
SI_	27	192	0	96	48	5
STR	27	288	0
SI_	27	288	0	96	48	3
STR	28	0	4
SF_	28	0	4	96	48	0
TAP	28	192	2
TAP	28	192	6
TAP	28	240	5
STR	28	288	4
SCR	28	288	4	96	288	3
TAP	28	336	3
TAP	29	0	2
TAP	29	96	3
TAP	29	192	4
TAP	29	288	5
STR	30	0	6
SI_	30	0	6	96	48	2
STR	30	0	7
SI_	30	0	7	96	48	1
STR	30	192	1
SI_	30	192	1	96	48	5
STR	30	192	2
SI_	30	192	2	96	48	4
HLD	31	0	4	96
HLD	31	0	5	96
STR	31	144	4
SXR	31	144	4	96	336	1
STR	31	144	5
SXL	31	144	5	96	336	0
STR	32	288	3
SI_	32	288	3	96	48	7
HLD	33	0	1	192
TAP	33	192	7
TAP	33	240	0
TAP	33	288	1
HLD	33	336	2	144
STR	34	96	4
SI_	34	96	4	96	48	0
TAP	34	144	2
HLD	34	192	6	144
TAP	34	336	1
HLD	35	0	1	96
TAP	35	96	3
HLD	35	144	3	96
HLD	35	240	5	96
HLD	35	336	7	120
TAP	36	72	0
TAP	36	96	7
TAP	36	120	0
TAP	36	144	7
TAP	36	168	0
BRK	36	192	1
BRK	36	192	6
TAP	36	288	0
TAP	36	288	1
TAP	36	336	0
TAP	36	336	7
TAP	37	0	6
HLD	37	0	7	96
STR	37	96	6
SCL	37	96	6	96	48	3
TAP	37	144	7
HLD	37	192	0	96
TAP	37	192	6
STR	37	288	7
SCL	37	288	7	96	48	4
TAP	37	336	0
HLD	38	0	1	96
TAP	38	0	7
STR	38	96	0
SCL	38	96	0	96	48	5
TAP	38	144	1
TAP	38	192	0
HLD	38	192	2	96
STR	38	288	3
SI_	38	288	3	96	48	0
STR	39	0	1
SI_	39	0	1	96	48	6
TAP	39	0	3
TAP	39	96	1
STR	39	96	7
SI_	39	96	7	96	48	4
STR	39	192	5
SI_	39	192	5	96	48	2
TAP	39	192	7
STR	39	288	3
SUL	39	288	3	96	144	0
TAP	39	288	5
TAP	40	0	3
HLD	40	0	7	192
TAP	40	288	4
TAP	40	288	5
TAP	40	336	3
TAP	40	336	4
TAP	41	0	2
STR	41	0	3
SI_	41	0	3	96	48	7
TAP	41	72	2
TAP	41	144	2
TAP	41	192	1
STR	41	192	7
SCL	41	192	7	96	48	4
TAP	41	264	1
TAP	41	336	1
TAP	42	0	2
STR	42	0	4
SI_	42	0	4	96	48	0
TAP	42	72	2
TAP	42	144	2
HLD	42	192	0	96
TAP	42	192	1
STR	42	288	1
SCR	42	288	1	96	48	4
TAP	42	336	0
TAP	43	0	1
HLD	43	0	7	96
STR	43	96	0
SCR	43	96	0	96	48	3
TAP	43	144	7
TAP	43	192	0
HLD	43	192	6	96
STR	43	288	7
SCR	43	288	7	96	144	6
TAP	43	336	6
HLD	44	0	5	192
TAP	44	0	7
STR	44	192	0
SF_	44	192	0	96	48	4
BRK	45	0	2
BRK	45	0	6
HLD	46	0	3	288
HLD	46	0	5	288
TAP	47	0	4
TAP	47	192	3
HLD	48	0	2	288
HLD	48	0	4	288
TAP	48	336	3
TAP	48	352	4
TAP	48	368	2
TAP	49	0	3
TAP	49	96	5
TAP	49	144	4
TAP	49	192	5
TAP	49	288	2
TAP	49	336	3
TAP	50	0	2
TAP	50	96	6
TAP	50	144	7
TAP	50	192	0
TAP	50	192	5
TAP	50	288	1
TAP	50	336	0
TAP	51	0	2
HLD	51	0	7	96
TAP	51	96	3
TAP	51	144	2
STR	51	192	1
SCR	51	192	1	96	48	4
STR	51	288	0
SCL	51	288	0	96	96	5
TAP	51	336	1
STR	52	0	5
SCL	52	0	5	96	96	2
BRK	52	192	0
TAP	52	288	4
TAP	52	288	5
TAP	52	336	3
TAP	52	336	4
TAP	53	0	2
HLD	53	0	3	96
STR	53	96	2
SCL	53	96	2	96	48	7
TAP	53	144	3
TAP	53	192	2
HLD	53	192	4	96
STR	53	288	3
SCL	53	288	3	96	48	0
TAP	53	336	4
TAP	54	0	3
HLD	54	0	5	96
STR	54	96	4
SCL	54	96	4	96	48	1
TAP	54	144	5
TAP	54	192	4
HLD	54	192	6	96
STR	54	288	7
SI_	54	288	7	96	48	4
STR	55	0	5
SI_	55	0	5	96	48	2
TAP	55	0	7
STR	55	96	3
SI_	55	96	3	96	48	0
TAP	55	96	5
STR	55	192	1
SI_	55	192	1	96	48	6
TAP	55	192	3
TAP	55	288	1
STR	55	288	7
SUL	55	288	7	96	144	4
HLD	56	0	3	192
TAP	56	0	7
TAP	56	288	0
TAP	56	288	1
TAP	56	336	0
TAP	56	336	7
TAP	57	0	6
STR	57	0	7
SI_	57	0	7	96	48	3
TAP	57	72	6
TAP	57	144	6
STR	57	192	3
SCL	57	192	3	96	48	0
TAP	57	192	5
TAP	57	264	5
TAP	57	336	5
STR	58	0	0
SI_	58	0	0	96	48	4
TAP	58	0	6
TAP	58	72	6
TAP	58	144	6
HLD	58	192	4	96
TAP	58	192	5
STR	58	288	5
SCR	58	288	5	96	48	0
TAP	58	336	4
HLD	59	0	3	96
TAP	59	0	5
STR	59	96	4
SCR	59	96	4	96	48	7
TAP	59	144	3
HLD	59	192	2	96
TAP	59	192	4
STR	59	288	3
SCR	59	288	3	96	48	6
TAP	59	336	2
HLD	60	0	1	96
TAP	60	0	3
TAP	60	96	0
TAP	60	120	1
TAP	60	168	2
TAP	60	168	7
TAP	60	216	3
TAP	60	216	6
TAP	60	264	4
TAP	60	264	5
TAP	60	312	0
TAP	60	336	0
BST	61	0	1
SI_	61	0	1	96	48	5
HLD	61	0	7	96
STR	61	192	5
SI_	61	192	5	96	48	1
HLD	61	192	6	96
TAP	61	336	6
STR	62	0	0
SI_	62	0	0	96	48	6
TAP	62	48	5
TAP	62	144	4
STR	62	192	4
SI_	62	192	4	96	48	2
BRK	62	288	0
HLD	63	0	1	96
STR	63	0	6
SI_	63	0	6	96	48	2
HLD	63	192	0	96
STR	63	192	2
SI_	63	192	2	96	48	6
TAP	63	336	0
STR	64	0	4
SI_	64	0	4	96	48	0
TAP	64	48	1
TAP	64	144	2
BRK	64	192	2
BRK	64	192	6
STR	64	288	5
SCR	64	288	5	96	48	0
TAP	64	336	4
TAP	65	0	4
STR	65	96	2
SCL	65	96	2	96	48	7
TAP	65	192	3
STR	65	288	5
SCR	65	288	5	96	96	2
TAP	65	336	4
TAP	66	0	4
TAP	66	48	3
TAP	66	144	0
TAP	66	144	7
BRK	66	192	0
BRK	66	192	7
STR	66	288	0
SI_	66	288	0	96	48	4
TAP	66	336	1
TAP	66	336	7
TAP	67	0	0
STR	67	96	7
SI_	67	96	7	96	48	3
TAP	67	144	0
TAP	67	144	6
TAP	67	192	7
STR	67	288	0
SUR	67	288	0	96	48	4
STR	67	288	6
SI_	67	288	6	96	48	1
BRK	68	0	6
TAP	68	96	5
TAP	68	120	4
TAP	68	144	6
TAP	68	168	3
TAP	68	192	7
TAP	68	216	2
TAP	68	240	0
TAP	68	264	1
TAP	68	288	7
TAP	68	312	0
TAP	68	336	7
STR	69	0	4
SI_	69	0	4	96	48	0
BRK	69	0	5
TAP	69	96	5
TAP	69	144	6
BRK	69	192	0
STR	69	192	7
SI_	69	192	7	96	48	3
TAP	69	288	0
TAP	69	336	1
BRK	70	0	2
TAP	70	0	3
TAP	70	72	4
BRK	70	72	5
BRK	70	144	0
BRK	70	144	7

T_REC_TAP	298
T_REC_BRK	21
T_REC_XTP	0
T_REC_HLD	49
T_REC_XHO	0
T_REC_STR	85
T_REC_BST	1
T_REC_XST	0
T_REC_TTP	0
T_REC_THO	0
T_REC_SLD	86
T_REC_ALL	540
T_NUM_TAP	383
T_NUM_BRK	22
T_NUM_HLD	49
T_NUM_SLD	86
T_NUM_ALL	540
T_JUDGE_TAP	405
T_JUDGE_HLD	147
T_JUDGE_SLD	86
T_JUDGE_ALL	638
TTM_EACHPAIRS	113
TTM_SCR_TAP	191500
TTM_SCR_BRK	57200
TTM_SCR_HLD	49000
TTM_SCR_SLD	129000
TTM_SCR_ALL	426700
TTM_SCR_S	411800
TTM_SCR_SS	424500
TTM_RAT_ACV	10051

