VERSION	0.00.00	1.03.00
FES_MODE	0
BPM_DEF	142.000	142.000	142.000	142.000
MET_DEF	4	4
RESOLUTION	384
CLK_DEF	384
COMPATIBLE_CODE	MA2

BPM	0	0	142.000
MET	0	0	4	4

STR	5	0	2
SI_	5	0	2	96	96	7
TAP	5	336	7
TAP	6	48	7
TAP	6	144	6
HLD	6	192	6	192
HLD	7	0	0	192
HLD	7	192	1	144
TAP	7	336	2
TAP	8	48	2
TAP	8	144	3
HLD	8	192	3	192
HLD	9	0	1	288
TAP	9	96	7
TAP	9	192	5
TAP	9	288	3
TAP	9	336	3
HLD	10	48	5	144
TAP	10	144	7
HLD	10	192	7	192
STR	11	0	6
SCL	11	0	6	96	96	3
TAP	11	96	0
TAP	11	192	6
HLD	11	288	2	96
BRK	12	0	0
STR	13	0	6
SI_	13	0	6	96	96	2
STR	13	192	3
SI_	13	192	3	96	96	7
STR	14	0	0
SI_	14	0	0	96	96	4
TAP	14	192	0
TAP	14	240	7
TAP	14	288	6
TAP	14	336	5
STR	15	0	4
SI_	15	0	4	96	96	1
STR	15	192	0
SI_	15	192	0	96	96	5
STR	16	0	6
SCL	16	0	6	96	96	3
STR	16	192	7
SCL	16	192	7	96	96	4
STR	17	0	1
SI_	17	0	1	96	96	4
STR	17	192	6
SI_	17	192	6	96	96	2
STR	18	0	3
SI_	18	0	3	96	96	7
TAP	18	192	6
TAP	18	240	7
TAP	18	288	0
TAP	18	336	1
STR	19	0	2
SI_	19	0	2	96	96	7
STR	19	192	4
SI_	19	192	4	96	96	0
STR	20	0	1
SI_	20	0	1	96	96	4
TAP	20	48	1
STR	20	192	7
SI_	20	192	7	96	96	3
TAP	20	240	7
BRK	20	288	0
TAP	21	0	1
TAP	21	48	2
TAP	21	72	3
TAP	21	120	3
TAP	21	144	2
TAP	21	192	0
TAP	21	240	7
TAP	21	264	6
TAP	21	312	6
TAP	21	336	7
TAP	22	0	1
TAP	22	48	2
TAP	22	72	3
TAP	22	120	3
TAP	22	144	4
TAP	22	192	6
TAP	22	240	5
TAP	22	264	4
TAP	22	312	4
TAP	22	336	3
TAP	23	0	4
TAP	23	48	5
TAP	23	72	6
TAP	23	120	6
TAP	23	144	5
TAP	23	192	3
TAP	23	240	2
TAP	23	264	1
TAP	23	312	1
TAP	23	336	2
TAP	24	0	3
TAP	24	48	4
TAP	24	72	5
TAP	24	120	5
TAP	24	144	6
TAP	24	192	4
TAP	24	240	3
TAP	24	264	2
TAP	24	312	2
TAP	24	336	1
STR	25	0	0
SI_	25	0	0	96	48	4
TAP	25	72	0
STR	25	192	4
SI_	25	192	4	96	48	1
TAP	25	264	4
STR	26	0	1
SI_	26	0	1	96	48	6
TAP	26	72	1
STR	26	192	6
SI_	26	192	6	96	48	2
TAP	26	264	6
STR	27	0	2
SI_	27	0	2	96	48	7
STR	27	96	7
SCL	27	96	7	96	96	4
STR	27	192	4
SCL	27	192	4	96	96	1
STR	27	288	1
SCR	27	288	1	96	96	4
STR	28	0	4
SCR	28	0	4	96	96	7
STR	28	96	7
SCR	28	96	7	96	96	2
STR	28	192	2
SCR	28	192	2	96	96	5
STR	29	0	0
SI_	29	0	0	96	96	3
TAP	29	72	0
TAP	29	144	0
STR	29	192	0
SI_	29	192	0	96	96	4
TAP	29	264	0
TAP	29	336	0
STR	30	0	5
SI_	30	0	5	96	96	1
TAP	30	72	5
TAP	30	144	5
STR	30	192	5
SI_	30	192	5	96	96	0
TAP	30	264	5
TAP	30	336	5
HLD	31	0	4	96
TAP	31	96	2
STR	31	144	0
SCR	31	144	0	96	144	3
STR	31	144	5
SCR	31	144	5	96	144	0
STR	32	288	3
SI_	32	288	3	96	96	7
TAP	33	192	7
TAP	33	240	6
TAP	33	288	5
HLD	33	336	3	192
TAP	34	96	1
HLD	34	144	1	240
TAP	34	336	3
HLD	35	0	3	143
TAP	35	96	5
HLD	35	144	5	192
TAP	35	240	6
HLD	35	336	0	144
BRK	36	192	0
TAP	36	288	0
TAP	36	288	7
TAP	36	336	6
TAP	36	336	7
STR	37	0	5
SI_	37	0	5	96	24	1
TAP	37	96	6
TAP	37	144	7
STR	37	192	0
SI_	37	192	0	96	24	5
TAP	37	288	7
TAP	37	336	6
STR	38	0	5
SI_	38	0	5	96	24	1
TAP	38	96	2
TAP	38	144	2
STR	38	192	3
SI_	38	192	3	96	24	7
TAP	38	288	6
TAP	38	336	6
HLD	39	0	5	96
HLD	39	96	3	96
HLD	39	192	1	96
HLD	39	288	7	96
STR	40	0	6
SI_	40	0	6	96	24	1
TAP	40	96	2
TAP	40	144	2
STR	40	192	3
SI_	40	192	3	96	24	0
TAP	40	288	7
TAP	40	336	7
HLD	41	0	7	72
TAP	41	72	6
HLD	41	144	7	48
HLD	41	192	1	72
TAP	41	264	2
HLD	41	336	3	48
HLD	42	0	1	72
TAP	42	72	0
HLD	42	144	7	48
HLD	42	192	5	72
TAP	42	264	4
HLD	42	336	3	48
STR	43	0	5
SCL	43	0	5	96	24	2
TAP	43	72	5
TAP	43	144	4
STR	43	192	5
SCR	43	192	5	96	24	0
TAP	43	264	5
TAP	43	336	6
STR	44	0	5
SI_	44	0	5	96	24	1
STR	44	96	2
SI_	44	96	2	96	24	7
BRK	44	288	7
HLD	45	0	0	96
TAP	45	96	1
TAP	45	144	2
HLD	45	192	3	96
TAP	45	288	1
TAP	45	336	0
HLD	46	0	1	96
TAP	46	96	5
TAP	46	144	4
HLD	46	192	6	96
TAP	46	288	0
TAP	46	336	2
HLD	47	0	3	96
TAP	47	96	1
TAP	47	144	0
HLD	47	192	1	96
TAP	47	288	5
TAP	47	336	4
HLD	48	0	6	96
TAP	48	96	0
TAP	48	144	2
HLD	48	192	3	96
TAP	48	288	1
TAP	48	336	0
STR	49	0	6
SI_	49	0	6	96	24	2
TAP	49	0	7
TAP	49	96	7
TAP	49	144	0
TAP	49	192	1
STR	49	192	2
SI_	49	192	2	96	24	7
TAP	49	288	1
TAP	49	336	0
TAP	50	0	6
STR	50	0	7
SCR	50	0	7	96	24	2
TAP	50	96	5
TAP	50	144	6
TAP	50	192	0
STR	50	192	7
SCL	50	192	7	96	24	4
TAP	50	288	1
TAP	50	336	0
HLD	51	0	7	96
TAP	51	96	3
TAP	51	144	2
STR	51	192	1
SCR	51	192	1	96	24	4
STR	51	288	0
SCL	51	288	0	96	96	5
TAP	51	336	1
STR	52	0	5
SCL	52	0	5	96	96	2
BRK	52	192	0
STR	53	0	5
SI_	53	0	5	96	24	1
TAP	53	96	6
TAP	53	144	7
STR	53	192	0
SI_	53	192	0	96	24	5
TAP	53	288	7
TAP	53	336	6
STR	54	0	5
SI_	54	0	5	96	24	1
TAP	54	96	2
TAP	54	144	2
STR	54	192	3
SI_	54	192	3	96	24	7
TAP	54	288	6
TAP	54	336	6
HLD	55	0	5	96
HLD	55	96	3	96
HLD	55	192	1	96
HLD	55	288	7	96
STR	56	0	6
SI_	56	0	6	96	24	1
TAP	56	96	2
TAP	56	144	2
STR	56	192	3
SI_	56	192	3	96	24	0
TAP	56	288	7
TAP	56	336	7
HLD	57	0	7	72
TAP	57	72	6
HLD	57	144	7	48
HLD	57	192	1	72
TAP	57	264	2
HLD	57	336	3	48
HLD	58	0	1	72
TAP	58	72	0
HLD	58	144	7	48
HLD	58	192	5	72
TAP	58	264	4
HLD	58	336	3	48
STR	59	0	5
SCL	59	0	5	96	24	2
TAP	59	72	5
TAP	59	144	4
STR	59	192	5
SCR	59	192	5	96	24	0
TAP	59	264	5
TAP	59	336	6
STR	60	0	5
SI_	60	0	5	96	24	1
STR	60	96	2
SI_	60	96	2	96	24	7
BRK	60	288	7
HLD	61	0	0	96
STR	61	0	1
SI_	61	0	1	96	24	5
STR	61	192	5
SI_	61	192	5	96	24	2
HLD	61	192	6	96
STR	62	0	2
SI_	62	0	2	96	24	6
HLD	62	0	3	288
STR	62	192	6
SI_	62	192	6	96	24	1
HLD	63	0	0	96
STR	63	0	1
SCR	63	0	1	96	24	4
STR	63	192	4
SCL	63	192	4	96	24	1
HLD	63	192	7	96
STR	64	0	1
SI_	64	0	1	96	24	4
HLD	64	0	6	288
STR	64	192	4
SI_	64	192	4	96	24	0
STR	65	0	2
SCL	65	0	2	96	24	7
TAP	65	0	3
TAP	65	72	2
TAP	65	144	1
TAP	65	192	0
STR	65	192	1
SCR	65	192	1	96	24	4
TAP	65	264	1
TAP	65	336	2
STR	66	0	4
SI_	66	0	4	96	24	0
TAP	66	0	5
TAP	66	72	4
TAP	66	144	3
STR	66	192	0
SCR	66	192	0	96	24	3
TAP	66	192	7
TAP	66	264	0
TAP	66	336	1
HLD	67	0	7	96
TAP	67	96	6
TAP	67	144	5
HLD	67	192	4	96
TAP	67	288	6
HLD	68	0	0	288
HLD	68	0	1	288
STR	69	0	0
SI_	69	0	0	96	24	3
TAP	69	0	4
TAP	69	96	5
TAP	69	144	7
TAP	69	192	3
STR	69	192	7
SI_	69	192	7	96	24	4
TAP	69	288	5
TAP	69	336	7
BRK	70	0	2
BRK	70	0	7
BRK	70	72	4
BRK	70	72	6
BRK	70	144	1
BRK	70	144	3

T_REC_TAP	179
T_REC_BRK	12
T_REC_XTP	0
T_REC_HLD	57
T_REC_XHO	0
T_REC_STR	75
T_REC_BST	0
T_REC_XST	0
T_REC_TTP	0
T_REC_THO	0
T_REC_SLD	75
T_REC_ALL	398
T_NUM_TAP	254
T_NUM_BRK	12
T_NUM_HLD	57
T_NUM_SLD	75
T_NUM_ALL	398
T_JUDGE_TAP	266
T_JUDGE_HLD	145
T_JUDGE_SLD	75
T_JUDGE_ALL	486
TTM_EACHPAIRS	23
TTM_SCR_TAP	127000
TTM_SCR_BRK	31200
TTM_SCR_HLD	57000
TTM_SCR_SLD	112500
TTM_SCR_ALL	327700
TTM_SCR_S	316750
TTM_SCR_SS	326500
TTM_RAT_ACV	10036

