VERSION	0.00.00	1.03.00
FES_MODE	0
BPM_DEF	142.000	142.000	142.000	142.000
MET_DEF	4	4
RESOLUTION	384
CLK_DEF	384
COMPATIBLE_CODE	MA2

BPM	0	0	142.000
MET	0	0	4	4

HLD	1	0	6	192
HLD	1	192	4	576
HLD	2	0	2	576
HLD	3	192	1	192
HLD	4	0	3	192
HLD	4	192	5	192
BRK	5	0	7
TAP	5	336	2
TAP	6	48	3
TAP	6	144	4
HLD	6	192	5	192
TAP	7	288	5
TAP	7	336	5
TAP	8	48	4
TAP	8	144	3
HLD	8	192	2	192
TAP	9	0	0
TAP	9	48	2
TAP	9	96	3
TAP	9	144	1
TAP	9	192	7
TAP	9	240	5
TAP	9	288	4
TAP	9	336	6
TAP	10	0	0
TAP	10	48	4
TAP	10	96	1
TAP	10	144	7
TAP	10	192	3
TAP	10	240	7
TAP	10	288	2
TAP	10	336	4
TAP	11	0	1
TAP	11	48	6
TAP	11	96	4
TAP	11	144	0
TAP	11	192	2
TAP	11	240	5
TAP	11	288	7
TAP	11	336	1
BRK	12	0	3
HLD	13	0	0	96
TAP	13	0	4
TAP	13	96	4
HLD	13	192	1	96
TAP	13	192	5
TAP	13	288	5
HLD	13	336	2	240
TAP	14	0	4
TAP	14	96	4
TAP	14	192	3
TAP	14	240	3
TAP	14	288	4
TAP	14	336	4
TAP	15	0	0
HLD	15	0	5	96
TAP	15	96	0
TAP	15	192	1
HLD	15	192	6	96
TAP	15	288	1
HLD	15	336	7	240
TAP	16	0	0
TAP	16	96	0
TAP	16	192	1
TAP	16	288	1
STR	17	0	0
SCL	17	0	0	96	96	5
TAP	17	0	3
TAP	17	96	3
STR	17	192	7
SCR	17	192	7	96	96	2
STR	17	336	5
SCL	17	336	5	96	96	2
TAP	18	144	6
TAP	18	192	7
TAP	18	240	7
TAP	18	288	0
TAP	18	336	0
STR	19	0	1
SCR	19	0	1	96	96	4
TAP	19	0	7
TAP	19	96	7
STR	19	240	5
SI_	19	240	5	96	96	0
STR	19	336	7
SCR	19	336	7	96	144	2
HLD	21	0	7	144
TAP	21	72	6
TAP	21	144	5
HLD	21	192	0	144
TAP	21	264	1
TAP	21	336	2
HLD	22	48	4	144
TAP	22	144	5
TAP	22	192	5
HLD	22	264	3	72
TAP	22	336	2
HLD	23	0	6	144
TAP	23	72	5
TAP	23	144	4
HLD	23	192	1	144
TAP	23	264	2
TAP	23	336	3
HLD	24	48	7	144
TAP	24	144	6
TAP	24	192	6
HLD	24	264	0	72
TAP	24	336	1
STR	25	0	7
SCR	25	0	7	96	48	2
TAP	25	72	6
TAP	25	144	6
STR	25	192	0
SCL	25	192	0	96	48	5
TAP	25	264	2
TAP	25	336	2
HLD	26	48	4	144
TAP	26	144	5
TAP	26	192	5
HLD	26	264	3	72
TAP	26	336	2
STR	27	0	6
SCL	27	0	6	96	48	3
TAP	27	72	7
TAP	27	144	7
STR	27	192	1
SCR	27	192	1	96	48	4
TAP	27	264	0
TAP	27	336	0
HLD	28	48	6	96
TAP	28	144	5
TAP	28	192	4
TAP	28	240	4
TAP	28	288	3
TAP	28	336	3
HLD	29	0	0	384
STR	30	0	6
SI_	30	0	6	96	48	3
STR	30	192	1
SI_	30	192	1	96	48	4
HLD	31	0	0	288
TAP	31	0	1
TAP	31	96	3
TAP	31	192	5
TAP	31	288	7
TAP	32	0	6
HLD	32	0	7	288
TAP	32	96	4
TAP	32	192	2
TAP	32	288	0
HLD	33	0	3	384
STR	34	0	5
SI_	34	0	5	96	48	0
STR	34	192	2
SI_	34	192	2	96	48	7
HLD	35	0	5	288
TAP	35	0	6
TAP	35	96	0
TAP	35	192	2
TAP	35	288	4
HLD	36	0	1	192
TAP	36	0	3
TAP	36	96	5
BRK	36	192	7
TAP	36	288	2
TAP	36	336	3
HLD	37	0	3	96
HLD	37	96	5	96
HLD	37	192	7	96
HLD	37	288	1	96
HLD	38	0	5	192
STR	38	192	1
SCL	38	192	1	96	48	6
HLD	39	0	4	96
HLD	39	96	2	96
HLD	39	192	0	96
HLD	39	288	6	96
HLD	40	0	2	192
STR	40	192	6
SCL	40	192	6	96	48	3
TAP	40	288	1
TAP	40	336	1
HLD	41	0	2	96
HLD	41	96	1	96
HLD	41	192	0	96
HLD	41	288	7	96
HLD	42	0	6	192
TAP	42	192	1
TAP	42	288	5
TAP	42	288	7
TAP	42	336	6
TAP	43	0	0
TAP	43	96	0
TAP	43	96	2
TAP	43	144	1
TAP	43	192	7
HLD	43	288	6	384
HLD	44	0	1	288
TAP	45	0	1
TAP	45	192	5
STR	46	0	0
SI_	46	0	0	96	48	4
STR	46	96	6
SI_	46	96	6	96	48	2
STR	46	192	7
SI_	46	192	7	96	48	3
TAP	47	0	6
TAP	47	192	2
STR	48	0	7
SI_	48	0	7	96	48	3
STR	48	96	1
SI_	48	96	1	96	48	5
STR	48	192	0
SI_	48	192	0	96	48	4
HLD	49	0	0	144
TAP	49	72	2
TAP	49	144	1
HLD	49	192	7	144
TAP	49	264	5
TAP	49	336	6
HLD	50	0	3	144
TAP	50	72	1
TAP	50	144	2
HLD	50	192	4	144
TAP	50	264	6
TAP	50	336	5
HLD	51	0	0	144
TAP	51	72	3
TAP	51	144	1
HLD	51	192	7	144
TAP	51	264	4
TAP	51	336	6
TAP	52	0	0
TAP	52	0	5
TAP	52	72	2
TAP	52	72	7
TAP	52	144	4
TAP	52	144	5
TAP	52	192	2
TAP	52	192	3
HLD	53	0	1	96
TAP	53	144	3
HLD	53	192	3	96
TAP	53	336	4
HLD	54	0	4	96
TAP	54	144	6
HLD	54	192	6	96
TAP	54	336	6
HLD	55	0	5	96
TAP	55	144	5
HLD	55	192	7	96
TAP	55	336	7
HLD	56	0	0	96
TAP	56	144	0
HLD	56	192	2	96
TAP	56	336	2
HLD	57	0	1	96
TAP	57	0	4
TAP	57	96	4
TAP	57	144	3
HLD	57	192	3	96
TAP	57	192	6
TAP	57	288	6
TAP	57	336	4
TAP	58	0	1
HLD	58	0	4	96
TAP	58	96	1
TAP	58	144	6
TAP	58	192	3
HLD	58	192	6	96
TAP	58	288	3
TAP	58	336	6
TAP	59	0	0
HLD	59	0	5	96
TAP	59	96	0
TAP	59	144	5
TAP	59	192	2
HLD	59	192	7	96
TAP	59	288	2
TAP	59	336	7
HLD	60	0	0	96
TAP	60	0	5
TAP	60	96	5
TAP	60	144	0
HLD	60	192	2	96
TAP	60	192	7
TAP	60	288	7
TAP	60	336	2
HLD	61	0	0	96
HLD	61	96	1	96
HLD	61	192	2	96
HLD	61	288	3	96
TAP	61	336	7
HLD	62	0	7	96
TAP	62	48	6
HLD	62	96	6	96
TAP	62	144	5
HLD	62	192	5	96
HLD	62	288	4	96
HLD	63	0	0	96
HLD	63	96	2	96
HLD	63	192	4	96
HLD	63	288	6	96
TAP	63	336	7
HLD	64	0	7	96
TAP	64	48	5
HLD	64	96	5	96
TAP	64	144	3
HLD	64	192	3	96
TAP	64	288	1
TAP	64	336	2
STR	65	0	2
SI_	65	0	2	96	48	7
STR	65	192	5
SI_	65	192	5	96	48	0
HLD	66	0	1	192
HLD	66	0	6	192
STR	66	288	6
SCL	66	288	6	96	48	3
TAP	66	336	6
STR	67	96	2
SCL	67	96	2	96	48	7
TAP	67	144	2
STR	67	288	0
SI_	67	288	0	96	192	4
STR	67	288	6
SI_	67	288	6	96	192	1
TAP	69	0	1
HLD	69	0	7	96
TAP	69	96	2
TAP	69	144	3
HLD	69	192	0	96
TAP	69	192	5
TAP	69	288	4
TAP	69	336	3
TAP	70	0	4
TAP	70	0	5
STR	70	72	2
SCL	70	72	2	96	48	7
STR	70	72	3
SI_	70	72	3	96	48	7

T_REC_TAP	189
T_REC_BRK	3
T_REC_XTP	0
T_REC_HLD	89
T_REC_XHO	0
T_REC_STR	30
T_REC_BST	0
T_REC_XST	0
T_REC_TTP	0
T_REC_THO	0
T_REC_SLD	30
T_REC_ALL	341
T_NUM_TAP	219
T_NUM_BRK	3
T_NUM_HLD	89
T_NUM_SLD	30
T_NUM_ALL	341
T_JUDGE_TAP	222
T_JUDGE_HLD	275
T_JUDGE_SLD	30
T_JUDGE_ALL	527
TTM_EACHPAIRS	30
TTM_SCR_TAP	109500
TTM_SCR_BRK	7800
TTM_SCR_HLD	89000
TTM_SCR_SLD	45000
TTM_SCR_ALL	251300
TTM_SCR_S	243500
TTM_SCR_SS	251000
TTM_RAT_ACV	10011

