VERSION	0.00.00	1.03.00
FES_MODE	0
BPM_DEF	142.000	142.000	142.000	142.000
MET_DEF	4	4
RESOLUTION	384
CLK_DEF	384
COMPATIBLE_CODE	MA2

BPM	0	0	142.000
MET	0	0	4	4

HLD	5	0	0	672
HLD	7	0	1	576
STR	8	192	2
SI_	8	192	2	96	48	7
TAP	9	0	0
TAP	9	96	0
TAP	9	192	7
TAP	9	288	7
TAP	10	0	1
TAP	10	96	1
TAP	10	192	5
TAP	10	288	5
TAP	11	0	3
TAP	11	96	3
TAP	11	192	4
TAP	11	288	4
TAP	12	0	2
TAP	12	96	6
TAP	12	192	0
BRK	12	288	7
HLD	13	0	6	192
HLD	13	192	5	144
HLD	13	336	4	144
TAP	14	192	6
TAP	14	288	7
HLD	15	0	0	192
HLD	15	192	1	144
HLD	15	336	2	336
HLD	17	0	0	192
HLD	17	192	7	144
HLD	17	336	6	144
TAP	18	192	0
TAP	18	288	1
HLD	19	0	2	240
TAP	19	240	3
HLD	19	336	3	336
TAP	21	0	2
TAP	21	96	2
TAP	21	192	1
TAP	21	288	1
TAP	22	0	0
TAP	22	96	0
TAP	22	192	7
TAP	22	288	7
TAP	23	0	6
TAP	23	96	6
TAP	23	192	5
TAP	23	288	5
TAP	24	0	4
TAP	24	96	4
TAP	24	192	3
TAP	24	288	3
TAP	25	0	5
TAP	25	96	5
TAP	25	192	6
TAP	25	288	6
TAP	26	0	7
TAP	26	96	7
TAP	26	192	0
TAP	26	288	0
HLD	27	0	1	480
STR	28	288	2
SI_	28	288	2	96	48	7
TAP	29	192	7
TAP	29	288	6
HLD	29	336	6	144
TAP	30	96	5
HLD	30	144	5	144
HLD	31	0	7	144
TAP	31	144	0
HLD	31	240	1	432
STR	32	288	3
SI_	32	288	3	96	48	0
TAP	33	192	0
TAP	33	288	7
HLD	33	336	7	144
TAP	34	96	0
HLD	34	144	0	144
STR	35	0	1
SI_	35	0	1	96	96	6
STR	36	0	5
SI_	36	0	5	96	96	2
BRK	36	288	1
TAP	37	0	0
TAP	37	96	0
TAP	37	192	7
TAP	37	288	7
HLD	38	0	6	288
HLD	39	0	7	192
HLD	39	192	0	192
HLD	40	0	1	288
TAP	41	0	2
TAP	41	96	2
TAP	41	192	3
TAP	41	288	3
TAP	42	0	4
TAP	42	96	4
TAP	42	192	5
TAP	42	288	5
STR	43	0	6
SI_	43	0	6	96	96	1
STR	44	0	4
SI_	44	0	4	96	96	7
HLD	45	0	1	672
HLD	47	0	2	672
TAP	49	0	1
TAP	49	96	1
TAP	49	192	0
TAP	49	288	0
TAP	50	0	7
TAP	50	96	7
TAP	50	192	6
TAP	50	288	6
TAP	51	0	7
TAP	51	96	7
TAP	51	192	0
TAP	51	288	0
TAP	52	0	7
TAP	52	96	5
TAP	52	192	3
BRK	52	288	1
TAP	53	0	7
TAP	53	96	7
TAP	53	192	6
TAP	53	288	6
HLD	54	0	5	288
HLD	55	0	7	192
HLD	55	192	0	192
HLD	56	0	1	288
TAP	57	0	0
TAP	57	96	0
TAP	57	192	7
TAP	57	288	7
TAP	58	0	6
TAP	58	96	6
TAP	58	192	5
TAP	58	288	5
STR	59	0	4
SI_	59	0	4	96	96	1
STR	60	0	2
SI_	60	0	2	96	96	7
BRK	60	288	7
TAP	61	0	6
TAP	61	96	5
TAP	61	192	4
HLD	61	288	3	384
HLD	62	0	2	288
TAP	63	0	3
TAP	63	96	4
TAP	63	192	5
HLD	63	288	6	384
HLD	64	0	7	288
TAP	65	0	5
TAP	65	96	4
TAP	65	192	3
TAP	65	288	2
HLD	66	0	0	288
HLD	66	0	1	288
TAP	67	0	2
TAP	67	96	3
TAP	67	192	4
TAP	67	288	5
TAP	67	288	6
HLD	68	0	6	288
HLD	68	0	7	288
TAP	69	0	5
TAP	69	96	4
TAP	69	192	3
TAP	69	288	2
TAP	70	0	0
TAP	70	0	1
TAP	70	72	0
TAP	70	72	7
BRK	70	144	0
BRK	70	144	7

T_REC_TAP	113
T_REC_BRK	6
T_REC_XTP	0
T_REC_HLD	38
T_REC_XHO	0
T_REC_STR	9
T_REC_BST	0
T_REC_XST	0
T_REC_TTP	0
T_REC_THO	0
T_REC_SLD	9
T_REC_ALL	175
T_NUM_TAP	122
T_NUM_BRK	6
T_NUM_HLD	38
T_NUM_SLD	9
T_NUM_ALL	175
T_JUDGE_TAP	128
T_JUDGE_HLD	226
T_JUDGE_SLD	9
T_JUDGE_ALL	363
TTM_EACHPAIRS	6
TTM_SCR_TAP	61000
TTM_SCR_BRK	15600
TTM_SCR_HLD	38000
TTM_SCR_SLD	13500
TTM_SCR_ALL	128100
TTM_SCR_S	123700
TTM_SCR_SS	127500
TTM_RAT_ACV	10047

