VERSION	0.00.00	1.03.00
FES_MODE	0
BPM_DEF	142.000	142.000	142.000	142.000
MET_DEF	4	4
RESOLUTION	384
CLK_DEF	384
COMPATIBLE_CODE	MA2

BPM	0	0	142.000
MET	0	0	4	4

TAP	5	0	0
TAP	7	0	7
TAP	9	0	0
TAP	9	192	0
TAP	10	0	1
TAP	10	192	1
TAP	11	0	0
TAP	11	192	0
BRK	12	0	7
TAP	13	0	0
TAP	13	192	0
TAP	14	0	1
TAP	14	192	1
TAP	15	0	0
TAP	15	192	0
TAP	16	0	7
TAP	16	192	7
TAP	17	0	6
TAP	17	192	6
TAP	18	0	5
TAP	18	192	5
TAP	19	0	4
TAP	19	192	4
TAP	20	0	3
TAP	20	192	3
TAP	21	0	4
TAP	21	96	4
TAP	22	0	2
TAP	22	96	2
TAP	23	0	6
TAP	23	96	6
TAP	24	0	0
TAP	24	96	0
TAP	25	0	7
TAP	25	96	7
TAP	26	0	6
TAP	26	96	6
TAP	27	0	7
TAP	27	96	7
TAP	28	0	0
TAP	28	96	0
HLD	29	0	1	288
HLD	30	0	2	288
STR	31	0	1
SI_	31	0	1	96	192	6
HLD	33	0	5	288
HLD	34	0	4	288
STR	35	0	5
SI_	35	0	5	96	192	1
TAP	36	0	0
TAP	36	96	0
TAP	36	192	0
BRK	36	288	0
TAP	37	0	7
TAP	37	192	6
HLD	38	0	5	288
TAP	39	0	7
TAP	39	192	0
HLD	40	0	1	288
TAP	41	0	1
TAP	41	192	0
HLD	42	0	6	288
HLD	42	0	7	288
TAP	43	0	0
TAP	43	192	0
TAP	44	0	1
BRK	44	192	1
STR	45	0	2
SI_	45	0	2	96	192	7
HLD	47	0	6	672
TAP	49	0	6
TAP	49	192	6
TAP	50	0	5
TAP	50	192	5
TAP	51	0	7
TAP	51	192	7
TAP	52	0	0
TAP	52	96	0
TAP	52	192	0
BRK	52	288	0
TAP	53	0	7
TAP	53	192	6
HLD	54	0	5	288
TAP	55	0	7
TAP	55	192	0
HLD	56	0	1	288
TAP	57	0	1
TAP	57	192	0
HLD	58	0	6	288
HLD	58	0	7	288
TAP	59	0	0
TAP	59	192	0
TAP	60	0	1
BRK	60	192	1
STR	61	0	2
SI_	61	0	2	96	192	7
HLD	62	0	6	288
STR	63	0	5
SI_	63	0	5	96	192	1
HLD	64	0	2	288
TAP	65	0	1
TAP	65	192	1
TAP	66	0	0
TAP	66	192	0
TAP	67	0	7
TAP	67	192	1
TAP	68	0	3
TAP	68	192	5
HLD	69	0	7	288
BRK	70	0	7

T_REC_TAP	78
T_REC_BRK	6
T_REC_XTP	0
T_REC_HLD	16
T_REC_XHO	0
T_REC_STR	5
T_REC_BST	0
T_REC_XST	0
T_REC_TTP	0
T_REC_THO	0
T_REC_SLD	5
T_REC_ALL	110
T_NUM_TAP	83
T_NUM_BRK	6
T_NUM_HLD	16
T_NUM_SLD	5
T_NUM_ALL	110
T_JUDGE_TAP	89
T_JUDGE_HLD	104
T_JUDGE_SLD	5
T_JUDGE_ALL	198
TTM_EACHPAIRS	2
TTM_SCR_TAP	41500
TTM_SCR_BRK	15600
TTM_SCR_HLD	16000
TTM_SCR_SLD	7500
TTM_SCR_ALL	80600
TTM_SCR_S	77600
TTM_SCR_SS	80000
TTM_RAT_ACV	10075

