VERSION	0.00.00	1.03.00
FES_MODE	0
BPM_DEF	164.730	164.730	164.730	164.730
MET_DEF	4	4
RESOLUTION	384
CLK_DEF	384
COMPATIBLE_CODE	MA2

BPM	0	0	164.730
MET	0	0	4	4

TAP	2	0	1
TAP	2	0	6
TAP	2	72	0
TAP	2	144	0
TAP	2	288	7
TAP	3	96	6
TAP	3	288	5
TAP	4	0	6
TAP	4	72	6
TAP	4	144	6
TAP	4	288	7
TAP	5	96	0
TAP	5	288	1
TAP	6	0	0
TAP	6	0	1
TAP	6	72	0
TAP	6	72	7
STR	6	144	6
SCR	6	144	6	96	192	1
TAP	6	144	7
TAP	7	192	5
TAP	7	288	5
TAP	8	0	4
TAP	8	72	4
TAP	8	144	4
STR	8	288	3
SCR	8	288	3	96	192	6
HLD	10	0	5	576
TAP	10	0	6
TAP	10	96	7
TAP	10	288	0
TAP	11	96	1
TAP	11	288	1
TAP	11	288	6
TAP	12	0	1
TAP	12	0	7
TAP	12	48	0
TAP	12	72	7
TAP	12	120	7
TAP	12	144	6
TAP	12	192	6
TAP	12	216	5
TAP	12	264	5
TAP	12	288	4
TAP	12	336	3
TAP	13	0	3
TAP	13	0	5
TAP	13	48	4
TAP	13	72	3
TAP	13	120	3
TAP	13	144	2
TAP	13	192	2
TAP	13	216	1
TAP	13	264	1
TAP	13	288	0
TAP	13	336	7
TAP	14	0	0
TAP	14	0	7
TAP	14	48	6
TAP	14	72	5
TAP	14	120	5
TAP	14	144	4
TAP	14	192	4
TAP	14	216	3
TAP	14	264	3
TAP	14	288	2
TAP	14	336	3
TAP	14	336	4
TAP	15	0	4
TAP	15	0	5
TAP	15	48	5
TAP	15	72	6
TAP	15	120	6
TAP	15	144	7
TAP	15	192	7
TAP	15	216	0
TAP	15	264	0
TAP	15	288	1
TAP	15	336	0
TAP	16	0	0
TAP	16	0	6
TAP	16	48	7
TAP	16	72	0
TAP	16	120	0
TAP	16	144	1
TAP	16	192	1
TAP	16	216	2
TAP	16	264	2
TAP	16	288	3
TAP	16	336	4
TAP	17	0	2
TAP	17	0	4
TAP	17	48	3
TAP	17	72	4
TAP	17	120	4
TAP	17	144	5
TAP	17	192	5
TAP	17	216	6
TAP	17	264	6
TAP	17	288	7
TAP	17	336	0
TAP	18	0	0
TAP	18	0	7
TAP	18	48	1
TAP	18	72	2
TAP	18	120	2
TAP	18	144	1
TAP	18	192	3
TAP	18	216	4
TAP	18	264	4
TAP	18	288	5
TAP	18	312	4
TAP	18	336	5
TAP	19	0	2
TAP	19	0	3
TAP	19	48	2
TAP	19	72	1
TAP	19	120	1
TAP	19	144	0
TAP	19	192	0
TAP	19	216	7
TAP	19	264	7
TAP	19	288	6
TAP	19	336	7
TAP	20	0	1
TAP	20	0	7
TAP	20	96	0
TAP	20	96	6
TAP	20	192	1
TAP	20	192	7
TAP	20	288	0
TAP	20	288	6
TAP	21	0	1
TAP	21	0	7
TAP	21	48	6
TAP	21	144	0
TAP	21	144	7
TAP	21	240	6
TAP	21	288	5
TAP	21	336	6
TAP	22	0	3
TAP	22	0	4
TAP	22	96	5
TAP	22	96	6
TAP	22	192	1
TAP	22	192	2
TAP	22	288	6
TAP	22	288	7
TAP	23	0	0
TAP	23	0	1
TAP	23	48	2
TAP	23	144	0
TAP	23	144	7
TAP	23	192	6
TAP	23	240	5
TAP	23	288	4
TAP	23	336	3
TAP	24	0	2
TAP	24	0	3
TAP	24	96	4
TAP	24	96	5
TAP	24	192	0
TAP	24	192	1
TAP	24	288	6
TAP	24	288	7
TAP	25	0	1
TAP	25	0	2
TAP	25	96	5
TAP	25	96	6
TAP	25	192	2
TAP	25	192	3
TAP	25	288	4
TAP	25	288	5
TAP	25	336	3
TAP	25	336	4
TAP	26	0	4
TAP	26	0	5
TAP	26	96	5
TAP	26	96	6
TAP	26	192	1
TAP	26	192	2
TAP	26	288	6
TAP	26	288	7
TAP	27	0	0
TAP	27	0	1
TAP	27	96	1
TAP	27	96	7
TAP	27	192	0
TAP	27	192	6
TAP	27	288	1
TAP	27	288	7
TAP	28	0	5
TAP	28	48	5
TAP	28	48	6
TAP	28	144	1
TAP	28	144	3
TAP	28	192	2
TAP	28	240	1
TAP	28	240	3
TAP	28	336	1
TAP	28	336	6
TAP	29	0	0
TAP	29	48	0
BRK	29	48	7
BRK	29	144	5
TAP	29	144	6
TAP	29	240	0
TAP	29	240	7
TAP	29	336	5
TAP	29	336	6
TAP	30	0	1
TAP	30	48	0
TAP	30	48	1
TAP	30	144	5
TAP	30	144	7
TAP	30	192	6
TAP	30	240	5
TAP	30	240	7
TAP	30	336	2
TAP	30	336	5
TAP	31	0	4
BRK	31	48	3
TAP	31	48	4
BRK	31	144	1
TAP	31	144	2
TAP	31	240	3
TAP	31	240	4
TAP	31	336	1
TAP	31	336	2
TAP	32	0	3
TAP	32	48	3
TAP	32	48	4
TAP	32	144	4
TAP	32	144	5
TAP	32	192	3
TAP	32	240	2
TAP	32	240	3
TAP	32	336	2
TAP	32	336	3
TAP	33	0	4
TAP	33	48	4
TAP	33	48	5
TAP	33	144	4
TAP	33	144	5
TAP	33	192	3
TAP	33	240	2
TAP	33	240	3
TAP	33	336	2
TAP	33	336	3
TAP	34	0	7
TAP	34	48	6
TAP	34	48	7
TAP	34	144	6
TAP	34	144	7
TAP	34	192	0
TAP	34	240	0
TAP	34	240	1
TAP	34	336	0
TAP	34	336	1
TAP	35	48	6
TAP	35	48	7
TAP	35	96	2
TAP	35	96	6
TAP	35	144	2
TAP	35	144	4
TAP	35	192	3
BRK	35	192	7
BRK	35	288	1
TAP	35	288	5
TAP	36	0	0
TAP	36	0	1
TAP	36	96	6
TAP	36	96	7
TAP	36	192	0
TAP	36	192	1
TAP	36	288	4
TAP	36	336	3
TAP	36	336	4
TAP	37	48	6
TAP	37	96	5
TAP	37	96	6
TAP	37	192	1
TAP	37	192	2
TAP	37	288	5
TAP	37	288	6
TAP	38	0	4
TAP	38	0	5
TAP	38	96	2
TAP	38	96	3
TAP	38	192	4
TAP	38	192	5
TAP	38	288	0
TAP	38	336	0
TAP	38	336	7
TAP	39	48	4
TAP	39	96	4
TAP	39	96	5
TAP	39	192	0
TAP	39	192	6
TAP	39	240	1
TAP	39	240	7
TAP	39	288	0
TAP	39	288	2
TAP	40	0	0
TAP	40	0	4
TAP	40	96	3
TAP	40	96	7
TAP	40	192	0
TAP	40	192	4
TAP	40	288	1
TAP	40	336	0
TAP	40	336	1
TAP	41	48	2
TAP	41	96	2
TAP	41	96	3
TAP	41	192	3
TAP	41	192	4
TAP	41	288	4
TAP	41	288	5
TAP	42	0	0
TAP	42	0	5
TAP	42	96	2
TAP	42	96	7
TAP	42	192	0
TAP	42	192	7
TAP	42	288	1
TAP	42	336	0
TAP	42	336	1
TAP	43	48	2
TAP	43	96	1
TAP	43	96	2
TAP	43	192	5
TAP	43	192	6
TAP	43	288	0
TAP	43	288	7
TAP	44	0	0
TAP	44	0	2
TAP	44	96	1
TAP	44	96	7
TAP	44	192	6
TAP	44	240	5
TAP	44	288	6
TAP	44	336	5
TAP	45	48	4
TAP	45	48	6
TAP	45	144	3
TAP	45	144	5
TAP	45	240	4
TAP	45	240	6
BRK	45	288	7
TAP	46	0	6
TAP	46	0	7
TAP	46	96	0
TAP	46	96	1
TAP	46	192	3
TAP	46	240	4
TAP	46	288	3
TAP	46	336	4
TAP	47	48	4
TAP	47	48	5
TAP	47	144	2
TAP	47	144	3
TAP	47	240	4
TAP	47	240	5
TAP	48	0	5
TAP	48	0	7
TAP	48	96	0
TAP	48	96	6
TAP	48	192	1
TAP	48	240	2
TAP	48	288	1
TAP	48	336	2
TAP	49	48	1
TAP	49	48	3
TAP	49	144	2
TAP	49	144	4
TAP	49	240	1
TAP	49	240	3
BRK	49	288	0
TAP	50	0	2
TAP	50	0	7
TAP	50	96	0
TAP	50	96	5
TAP	50	192	2
TAP	50	192	7
TAP	50	288	0
TAP	50	288	5
STR	51	0	3
SCL	51	0	3	96	96	0
STR	51	0	4
SCR	51	0	4	96	96	7
TAP	52	0	7
TAP	52	48	6
TAP	52	48	7
TAP	52	144	6
TAP	52	144	7
TAP	52	192	5
TAP	52	240	4
TAP	52	240	5
TAP	52	336	4
TAP	52	336	5
TAP	53	0	6
TAP	53	48	5
STR	53	48	6
SI_	53	48	6	96	48	1
TAP	53	240	7
BRK	53	288	7
TAP	54	0	2
TAP	54	48	2
TAP	54	48	3
TAP	54	144	2
TAP	54	144	3
TAP	54	192	1
TAP	54	240	0
TAP	54	240	1
TAP	54	336	0
TAP	54	336	1
TAP	55	0	2
STR	55	48	2
SI_	55	48	2	96	48	5
TAP	55	48	3
TAP	55	240	0
BRK	55	288	0
TAP	56	0	1
TAP	56	0	7
TAP	56	96	0
TAP	56	96	6
TAP	56	192	1
TAP	56	192	3
TAP	56	288	2
TAP	56	288	4
TAP	57	0	0
TAP	57	0	6
TAP	57	96	1
TAP	57	96	7
TAP	57	192	4
TAP	57	192	6
TAP	57	288	3
TAP	57	288	5
TAP	57	336	6
TAP	58	0	6
TAP	58	0	7
TAP	58	96	0
TAP	58	96	1
TAP	58	192	6
TAP	58	192	7
TAP	58	288	0
TAP	58	288	1
TAP	59	0	6
BRK	59	96	2
BRK	59	96	5
BRK	59	192	1
BRK	59	192	6
BRK	59	288	0
BRK	59	288	7
TAP	60	0	0
TAP	60	0	2
TAP	60	48	1
TAP	60	96	5
TAP	60	96	7
TAP	60	144	6
TAP	60	192	0
TAP	60	192	2
TAP	60	240	1
TAP	60	288	5
TAP	60	288	7
TAP	60	336	6
TAP	61	0	0
TAP	61	0	2
TAP	61	48	1
STR	61	96	5
SI_	61	96	5	96	48	2
TAP	61	96	7
STR	61	192	1
SI_	61	192	1	96	48	6
TAP	62	0	3
TAP	62	0	5
TAP	62	48	4
TAP	62	96	2
TAP	62	96	4
TAP	62	144	2
TAP	62	192	3
TAP	62	192	5
TAP	62	240	4
TAP	62	288	2
TAP	62	288	4
TAP	62	336	2
TAP	63	0	3
TAP	63	0	5
TAP	63	48	4
STR	63	96	2
SI_	63	96	2	96	48	6
TAP	63	96	4
STR	63	192	4
SI_	63	192	4	96	48	0
TAP	64	0	0
TAP	64	0	2
TAP	64	48	1
TAP	64	96	5
TAP	64	96	7
TAP	64	144	6
TAP	64	192	0
TAP	64	192	2
TAP	64	240	1
TAP	64	288	5
TAP	64	288	7
TAP	64	336	6
TAP	65	0	1
TAP	65	0	3
TAP	65	48	2
TAP	65	96	4
TAP	65	96	6
TAP	65	144	5
TAP	65	192	1
TAP	65	192	3
TAP	65	240	2
TAP	65	288	4
TAP	65	288	6
TAP	65	336	5
TAP	66	0	0
TAP	66	0	1
TAP	66	48	1
TAP	66	96	6
TAP	66	96	7
TAP	66	144	7
TAP	66	192	1
TAP	66	192	2
TAP	66	240	2
TAP	66	288	5
TAP	66	288	6
TAP	66	336	5
TAP	67	0	2
TAP	67	0	3
TAP	67	48	2
TAP	67	96	4
TAP	67	96	5
TAP	67	144	4
TAP	67	192	0
TAP	67	192	4
TAP	67	288	2
STR	67	288	6
SCR	67	288	6	96	192	1

T_REC_TAP	503
T_REC_BRK	16
T_REC_XTP	0
T_REC_HLD	1
T_REC_XHO	0
T_REC_STR	11
T_REC_BST	0
T_REC_XST	0
T_REC_TTP	0
T_REC_THO	0
T_REC_SLD	11
T_REC_ALL	542
T_NUM_TAP	514
T_NUM_BRK	16
T_NUM_HLD	1
T_NUM_SLD	11
T_NUM_ALL	542
T_JUDGE_TAP	530
T_JUDGE_HLD	12
T_JUDGE_SLD	11
T_JUDGE_ALL	553
TTM_EACHPAIRS	179
TTM_SCR_TAP	257000
TTM_SCR_BRK	41600
TTM_SCR_HLD	1000
TTM_SCR_SLD	16500
TTM_SCR_ALL	316100
TTM_SCR_S	305100
TTM_SCR_SS	314500
TTM_RAT_ACV	10050

