VERSION	0.00.00	1.03.00
FES_MODE	0
BPM_DEF	164.730	164.730	164.730	164.730
MET_DEF	4	4
RESOLUTION	384
CLK_DEF	384
COMPATIBLE_CODE	MA2

BPM	0	0	164.730
MET	0	0	4	4

STR	2	0	4
SI_	2	0	4	96	288	7
STR	4	0	3
SI_	4	0	3	96	288	0
TAP	5	288	7
STR	6	0	2
SI_	6	0	2	96	288	7
STR	8	0	5
SI_	8	0	5	96	288	0
TAP	10	0	0
TAP	10	192	0
TAP	11	0	0
STR	11	192	0
SI_	11	192	0	96	24	4
TAP	12	0	0
TAP	12	0	7
TAP	12	96	0
TAP	12	96	1
TAP	12	192	0
TAP	12	192	7
TAP	12	288	0
TAP	12	288	1
TAP	13	0	6
TAP	13	0	7
TAP	13	96	0
TAP	13	96	7
TAP	13	192	6
TAP	13	192	7
TAP	13	288	0
TAP	13	288	7
TAP	14	0	5
TAP	14	0	6
TAP	14	96	6
TAP	14	96	7
TAP	14	192	5
TAP	14	192	6
TAP	14	288	6
TAP	14	288	7
TAP	15	0	0
TAP	15	0	7
TAP	15	96	6
TAP	15	96	7
TAP	15	192	0
TAP	15	192	7
TAP	15	288	6
TAP	15	288	7
TAP	16	0	0
TAP	16	0	7
TAP	16	96	0
TAP	16	96	1
TAP	16	192	0
TAP	16	192	7
TAP	16	288	0
TAP	16	288	1
TAP	17	0	1
TAP	17	0	2
TAP	17	96	0
TAP	17	96	1
TAP	17	192	1
TAP	17	192	2
TAP	17	288	0
TAP	17	288	1
TAP	18	0	0
TAP	18	0	7
TAP	18	96	6
TAP	18	96	7
TAP	18	192	0
TAP	18	192	7
TAP	18	288	6
TAP	18	288	7
TAP	19	0	0
TAP	19	0	1
TAP	19	96	0
TAP	19	96	7
TAP	19	192	0
TAP	19	192	1
TAP	19	288	0
TAP	19	288	7
TAP	20	0	6
TAP	20	96	5
TAP	20	192	1
TAP	20	288	2
TAP	21	0	0
TAP	21	0	6
TAP	21	96	1
TAP	21	96	7
TAP	21	192	0
TAP	21	192	6
TAP	21	288	1
TAP	21	288	7
TAP	22	0	0
TAP	22	96	3
TAP	22	192	7
TAP	22	288	4
TAP	23	0	0
TAP	23	0	6
TAP	23	96	1
TAP	23	96	7
TAP	23	192	0
TAP	23	192	6
TAP	23	288	1
TAP	23	288	7
TAP	24	0	4
TAP	24	0	5
TAP	24	96	3
TAP	24	192	4
TAP	24	192	5
TAP	24	288	3
TAP	25	0	4
TAP	25	0	5
TAP	25	96	3
TAP	25	192	4
TAP	25	192	5
TAP	25	288	3
TAP	26	0	2
TAP	26	0	3
TAP	26	96	4
TAP	26	192	2
TAP	26	192	3
TAP	26	288	4
TAP	27	0	2
TAP	27	0	3
TAP	27	96	4
TAP	27	192	2
TAP	27	192	3
TAP	27	288	4
TAP	28	0	6
TAP	28	0	7
TAP	28	96	0
TAP	28	96	7
TAP	28	192	6
TAP	28	192	7
TAP	28	288	0
TAP	28	288	7
TAP	29	0	1
TAP	29	48	0
TAP	29	144	0
TAP	29	240	0
TAP	29	288	1
TAP	30	0	0
TAP	30	0	1
TAP	30	96	0
TAP	30	96	7
TAP	30	192	0
TAP	30	192	1
TAP	30	288	0
TAP	30	288	7
TAP	31	0	6
TAP	31	48	7
TAP	31	144	7
TAP	31	240	7
TAP	31	288	6
TAP	32	0	5
TAP	32	0	6
TAP	32	96	4
TAP	32	96	5
TAP	32	192	3
TAP	32	192	4
TAP	32	288	2
TAP	32	288	3
TAP	33	0	1
TAP	33	0	2
TAP	33	96	2
TAP	33	96	3
TAP	33	192	3
TAP	33	192	4
TAP	33	288	4
TAP	33	288	5
TAP	34	0	5
TAP	34	0	6
TAP	34	96	6
TAP	34	96	7
TAP	34	192	0
TAP	34	192	7
TAP	34	288	0
TAP	34	288	1
TAP	35	0	1
TAP	35	0	6
BRK	35	96	7
BRK	35	192	0
BRK	35	288	7
TAP	36	0	0
TAP	36	0	6
TAP	36	96	1
TAP	36	96	7
TAP	36	192	0
TAP	36	192	6
TAP	36	288	1
TAP	36	288	7
TAP	37	0	0
TAP	37	0	6
TAP	37	96	1
TAP	37	96	7
TAP	37	192	0
TAP	37	192	6
TAP	37	288	2
TAP	37	288	7
TAP	38	0	0
TAP	38	0	5
TAP	38	96	1
TAP	38	96	7
TAP	38	192	0
TAP	38	192	6
TAP	38	288	1
TAP	38	288	7
TAP	39	0	0
TAP	39	0	6
TAP	39	96	0
TAP	39	96	1
TAP	39	192	0
TAP	39	192	7
TAP	39	288	0
TAP	39	288	1
TAP	40	0	0
TAP	40	0	6
TAP	40	96	1
TAP	40	96	7
TAP	40	192	0
TAP	40	192	6
TAP	40	288	1
TAP	40	288	7
TAP	41	0	0
TAP	41	0	6
TAP	41	96	1
TAP	41	96	7
TAP	41	192	0
TAP	41	192	6
TAP	41	288	0
TAP	41	288	1
TAP	42	0	6
TAP	42	0	7
TAP	42	96	0
TAP	42	96	1
TAP	42	192	0
TAP	42	192	6
TAP	42	288	1
TAP	42	288	7
TAP	43	0	0
TAP	43	0	6
TAP	43	96	2
TAP	43	96	7
TAP	43	192	0
TAP	43	192	5
TAP	43	288	2
TAP	43	288	7
TAP	44	0	0
TAP	44	0	6
TAP	44	96	0
TAP	44	96	6
TAP	44	192	6
TAP	44	240	0
TAP	44	288	7
TAP	44	336	1
TAP	45	48	0
TAP	45	48	6
TAP	45	144	1
TAP	45	144	7
TAP	45	240	6
BRK	45	288	0
TAP	46	0	1
TAP	46	0	7
TAP	46	96	1
TAP	46	96	7
TAP	46	192	0
TAP	46	240	6
TAP	46	288	1
TAP	46	336	7
TAP	47	48	0
TAP	47	96	6
TAP	47	192	1
TAP	47	192	7
TAP	47	288	0
TAP	47	288	6
TAP	48	0	1
TAP	48	0	7
TAP	48	96	1
TAP	48	96	7
TAP	48	192	1
TAP	48	240	7
TAP	48	288	0
TAP	48	336	6
TAP	49	48	1
TAP	49	48	7
TAP	49	144	0
TAP	49	144	6
TAP	49	240	1
BRK	49	288	7
TAP	50	0	0
TAP	50	0	6
TAP	50	96	0
TAP	50	96	6
TAP	50	192	7
TAP	50	240	1
TAP	50	288	6
TAP	50	336	0
TAP	51	48	7
TAP	51	96	1
TAP	51	192	0
TAP	51	192	6
TAP	51	288	1
TAP	51	288	7
TAP	52	0	0
TAP	52	0	6
TAP	52	96	1
TAP	52	96	5
TAP	52	192	0
TAP	52	192	6
TAP	52	288	1
TAP	52	288	5
TAP	53	0	1
TAP	53	0	7
TAP	53	96	2
TAP	53	96	6
TAP	53	192	1
TAP	53	192	7
TAP	53	288	2
TAP	53	288	6
TAP	54	0	6
TAP	54	0	7
TAP	54	96	0
TAP	54	96	5
TAP	54	192	6
TAP	54	192	7
TAP	54	288	0
TAP	54	288	5
TAP	55	0	0
TAP	55	0	1
TAP	55	96	2
TAP	55	96	7
TAP	55	192	0
TAP	55	192	1
TAP	55	288	2
TAP	55	288	7
TAP	56	0	1
TAP	56	0	2
TAP	56	96	2
TAP	56	96	3
TAP	56	192	3
TAP	56	192	4
TAP	56	288	4
TAP	56	288	5
TAP	57	0	5
TAP	57	0	6
TAP	57	96	4
TAP	57	96	5
TAP	57	192	3
TAP	57	192	4
TAP	57	288	2
TAP	57	288	3
TAP	58	0	1
TAP	58	0	2
TAP	58	96	0
TAP	58	96	1
TAP	58	192	0
TAP	58	192	7
TAP	58	288	6
TAP	58	288	7
TAP	59	0	1
TAP	59	0	6
BRK	59	96	7
BRK	59	192	0
BRK	59	288	7
TAP	60	0	0
TAP	60	0	5
TAP	60	96	2
TAP	60	96	7
TAP	60	192	0
TAP	60	192	5
TAP	60	288	2
TAP	60	288	7
TAP	61	0	0
TAP	61	0	5
TAP	61	96	2
TAP	61	96	7
TAP	61	192	0
TAP	61	192	5
TAP	61	288	2
TAP	61	288	7
TAP	62	0	0
TAP	62	0	5
TAP	62	96	2
TAP	62	96	7
TAP	62	192	0
TAP	62	192	5
TAP	62	288	2
TAP	62	288	7
TAP	63	0	1
TAP	63	0	4
TAP	63	96	3
TAP	63	96	6
TAP	63	192	0
TAP	63	192	5
TAP	63	288	2
TAP	63	288	7
TAP	64	0	0
TAP	64	0	5
TAP	64	96	2
TAP	64	96	7
TAP	64	192	0
TAP	64	192	5
TAP	64	288	2
TAP	64	288	7
TAP	65	0	0
TAP	65	0	5
TAP	65	96	2
TAP	65	96	7
TAP	65	192	0
TAP	65	192	5
TAP	65	288	2
TAP	65	288	7
TAP	66	0	0
TAP	66	0	6
TAP	66	96	1
TAP	66	96	7
TAP	66	192	0
TAP	66	192	5
TAP	66	288	2
TAP	66	288	7
TAP	67	0	1
TAP	67	0	4
TAP	67	96	3
TAP	67	96	6
TAP	67	192	0
TAP	67	192	5
TAP	67	288	2
TAP	67	288	7

T_REC_TAP	408
T_REC_BRK	8
T_REC_XTP	0
T_REC_HLD	0
T_REC_XHO	0
T_REC_STR	5
T_REC_BST	0
T_REC_XST	0
T_REC_TTP	0
T_REC_THO	0
T_REC_SLD	5
T_REC_ALL	426
T_NUM_TAP	413
T_NUM_BRK	8
T_NUM_HLD	0
T_NUM_SLD	5
T_NUM_ALL	426
T_JUDGE_TAP	421
T_JUDGE_HLD	0
T_JUDGE_SLD	5
T_JUDGE_ALL	426
TTM_EACHPAIRS	178
TTM_SCR_TAP	206500
TTM_SCR_BRK	20800
TTM_SCR_HLD	0
TTM_SCR_SLD	7500
TTM_SCR_ALL	234800
TTM_SCR_S	227000
TTM_SCR_SS	234000
TTM_RAT_ACV	10034

