VERSION	0.00.00	1.03.00
FES_MODE	0
BPM_DEF	164.730	164.730	164.730	164.730
MET_DEF	4	4
RESOLUTION	384
CLK_DEF	384
COMPATIBLE_CODE	MA2

BPM	0	0	164.730
MET	0	0	4	4

STR	2	0	5
SI_	2	0	5	96	192	0
STR	3	0	1
SI_	3	0	1	96	192	4
STR	4	0	3
SI_	4	0	3	96	192	6
STR	5	0	7
SI_	5	0	7	96	192	2
HLD	6	0	2	288
HLD	7	0	4	288
STR	8	0	6
SCR	8	0	6	96	192	1
STR	9	0	2
SCR	9	0	2	96	192	5
HLD	10	0	3	192
HLD	10	192	4	192
HLD	11	0	5	192
HLD	11	192	6	192
TAP	12	0	7
TAP	12	96	0
TAP	12	192	7
TAP	12	288	0
TAP	13	0	7
TAP	13	96	0
TAP	13	192	7
TAP	13	288	0
TAP	14	0	7
TAP	14	96	0
TAP	14	192	7
TAP	14	288	0
TAP	15	0	7
TAP	15	96	0
TAP	15	192	7
TAP	15	288	0
TAP	16	0	0
TAP	16	0	6
TAP	16	96	1
TAP	16	96	7
TAP	16	192	0
TAP	16	192	6
TAP	16	288	1
TAP	16	288	7
TAP	17	0	0
TAP	17	0	6
TAP	17	96	1
TAP	17	96	7
TAP	17	192	0
TAP	17	192	6
TAP	17	288	1
TAP	17	288	7
TAP	18	0	7
TAP	18	96	0
TAP	18	192	7
TAP	18	288	0
TAP	19	0	7
TAP	19	96	0
TAP	19	192	7
TAP	19	288	0
TAP	20	0	0
TAP	20	0	6
TAP	20	96	1
TAP	20	96	7
TAP	20	192	0
TAP	20	192	6
TAP	20	288	1
TAP	20	288	7
TAP	21	0	0
TAP	21	0	6
TAP	21	96	1
TAP	21	96	7
TAP	21	192	0
TAP	21	192	6
TAP	21	288	1
TAP	21	288	7
TAP	22	0	6
TAP	22	96	1
TAP	22	192	6
TAP	22	288	1
TAP	23	0	6
TAP	23	96	1
TAP	23	192	6
TAP	23	288	1
TAP	24	0	3
TAP	24	0	5
TAP	24	96	2
TAP	24	96	4
TAP	24	192	3
TAP	24	192	5
TAP	24	288	2
TAP	24	288	4
TAP	25	0	3
TAP	25	0	5
TAP	25	96	2
TAP	25	96	4
TAP	25	192	3
TAP	25	192	5
TAP	25	288	2
TAP	25	288	4
STR	26	0	7
SCR	26	0	7	96	96	2
STR	27	0	1
SCL	27	0	1	96	96	6
TAP	28	0	6
TAP	28	96	0
TAP	28	96	1
TAP	28	192	6
TAP	28	288	0
TAP	28	288	1
TAP	29	0	6
TAP	29	96	0
TAP	29	96	1
TAP	29	192	6
TAP	29	288	0
TAP	29	288	1
TAP	30	0	6
TAP	30	0	7
TAP	30	96	1
TAP	30	192	6
TAP	30	192	7
TAP	30	288	1
TAP	31	0	6
TAP	31	0	7
TAP	31	96	1
TAP	31	192	6
TAP	31	192	7
TAP	31	288	1
TAP	32	0	6
TAP	32	96	0
TAP	32	192	6
TAP	32	288	0
TAP	33	0	0
TAP	33	0	6
TAP	33	96	1
TAP	33	96	7
TAP	33	192	0
TAP	33	192	6
TAP	33	288	1
TAP	33	288	7
TAP	34	0	7
TAP	34	96	1
TAP	34	192	7
TAP	34	288	1
TAP	35	0	6
TAP	35	0	7
TAP	35	96	0
TAP	35	96	1
TAP	35	192	1
TAP	35	192	5
BRK	35	288	2
BRK	35	288	6
TAP	36	0	7
TAP	36	96	0
TAP	36	192	7
TAP	36	288	0
TAP	37	0	7
TAP	37	96	0
TAP	37	192	7
TAP	37	288	0
TAP	38	0	4
TAP	38	0	5
TAP	38	96	2
TAP	38	96	3
TAP	38	192	4
TAP	38	192	5
TAP	38	288	2
TAP	38	288	3
TAP	39	0	4
TAP	39	0	5
TAP	39	96	2
TAP	39	96	3
TAP	39	192	4
TAP	39	192	5
TAP	39	288	2
TAP	39	288	3
TAP	40	0	0
TAP	40	0	6
TAP	40	96	1
TAP	40	96	7
TAP	40	192	0
TAP	40	192	6
TAP	40	288	1
TAP	40	288	7
TAP	41	0	0
TAP	41	0	6
TAP	41	96	1
TAP	41	96	7
TAP	41	192	0
TAP	41	192	6
TAP	41	288	1
TAP	41	288	7
TAP	42	0	4
TAP	42	0	5
TAP	42	96	2
TAP	42	96	3
TAP	42	192	4
TAP	42	192	5
TAP	42	288	2
TAP	42	288	3
TAP	43	0	6
TAP	43	0	7
TAP	43	96	0
TAP	43	96	1
TAP	43	192	1
TAP	43	192	5
TAP	43	288	2
TAP	43	288	6
TAP	44	0	6
TAP	44	0	7
TAP	44	96	6
TAP	44	96	7
TAP	44	192	6
TAP	44	192	7
TAP	46	0	0
TAP	46	0	1
TAP	46	96	0
TAP	46	96	1
TAP	46	192	0
TAP	46	192	1
TAP	46	288	2
TAP	46	336	2
STR	47	96	3
SI_	47	96	3	96	96	6
TAP	48	0	0
TAP	48	0	1
TAP	48	96	0
TAP	48	96	1
TAP	48	192	0
TAP	48	192	1
TAP	50	0	6
TAP	50	0	7
TAP	50	96	6
TAP	50	96	7
TAP	50	192	6
TAP	50	192	7
TAP	50	288	5
TAP	50	336	5
STR	51	96	4
SI_	51	96	4	96	96	1
TAP	52	0	7
TAP	52	96	0
TAP	52	192	7
TAP	52	288	0
TAP	53	0	7
TAP	53	96	0
TAP	53	192	7
TAP	53	288	0
TAP	54	0	4
TAP	54	0	5
TAP	54	96	2
TAP	54	96	3
TAP	54	192	4
TAP	54	192	5
TAP	54	288	2
TAP	54	288	3
TAP	55	0	4
TAP	55	0	5
TAP	55	96	2
TAP	55	96	3
TAP	55	192	4
TAP	55	192	5
TAP	55	288	2
TAP	55	288	3
STR	56	0	5
SCL	56	0	5	96	96	2
TAP	57	0	6
TAP	57	96	1
TAP	57	192	6
TAP	57	288	1
STR	58	0	2
SCR	58	0	2	96	96	5
TAP	59	0	2
TAP	59	0	5
TAP	59	96	1
TAP	59	96	5
TAP	59	192	2
TAP	59	192	6
TAP	59	288	1
TAP	59	288	6
TAP	60	0	6
TAP	60	0	7
TAP	60	96	1
TAP	60	192	6
TAP	60	192	7
TAP	60	288	1
TAP	61	0	6
TAP	61	0	7
TAP	61	96	1
TAP	61	192	6
TAP	61	192	7
TAP	61	288	1
TAP	62	0	6
TAP	62	96	0
TAP	62	96	1
TAP	62	192	6
TAP	62	288	0
TAP	62	288	1
TAP	63	0	6
TAP	63	96	0
TAP	63	96	1
TAP	63	192	6
TAP	63	288	0
TAP	63	288	1
TAP	64	0	0
TAP	64	0	5
TAP	64	96	2
TAP	64	96	7
TAP	64	192	0
TAP	64	192	5
TAP	64	288	1
TAP	64	288	7
TAP	65	0	0
TAP	65	0	6
TAP	65	96	1
TAP	65	96	7
TAP	65	192	0
TAP	65	192	6
TAP	65	288	1
TAP	65	288	7
TAP	66	0	6
TAP	66	0	7
TAP	66	96	0
TAP	66	96	1
TAP	66	192	6
TAP	66	192	7
TAP	66	288	0
TAP	66	288	1
TAP	67	0	6
TAP	67	0	7
TAP	67	96	0
TAP	67	96	1
TAP	67	192	1
TAP	67	192	5
TAP	67	288	2
TAP	67	288	6

T_REC_TAP	302
T_REC_BRK	2
T_REC_XTP	0
T_REC_HLD	6
T_REC_XHO	0
T_REC_STR	12
T_REC_BST	0
T_REC_XST	0
T_REC_TTP	0
T_REC_THO	0
T_REC_SLD	12
T_REC_ALL	334
T_NUM_TAP	314
T_NUM_BRK	2
T_NUM_HLD	6
T_NUM_SLD	12
T_NUM_ALL	334
T_JUDGE_TAP	316
T_JUDGE_HLD	28
T_JUDGE_SLD	12
T_JUDGE_ALL	356
TTM_EACHPAIRS	112
TTM_SCR_TAP	157000
TTM_SCR_BRK	5200
TTM_SCR_HLD	6000
TTM_SCR_SLD	18000
TTM_SCR_ALL	186200
TTM_SCR_S	180450
TTM_SCR_SS	186000
TTM_RAT_ACV	10010

