VERSION	0.00.00	1.03.00
FES_MODE	0
BPM_DEF	164.730	164.730	164.730	164.730
MET_DEF	4	4
RESOLUTION	384
CLK_DEF	384
COMPATIBLE_CODE	MA2

BPM	0	0	164.730
MET	0	0	4	4

TAP	2	0	6
TAP	2	0	7
TAP	3	0	0
TAP	3	0	1
TAP	4	0	1
TAP	4	0	7
TAP	5	0	0
TAP	5	0	6
STR	6	0	6
SI_	6	0	6	96	192	1
STR	8	0	2
SI_	8	0	2	96	192	5
HLD	10	0	5	288
HLD	11	0	6	288
TAP	12	0	0
TAP	12	96	7
TAP	12	192	0
TAP	12	288	7
TAP	13	0	0
TAP	13	96	7
TAP	13	192	0
TAP	13	288	7
TAP	14	0	1
TAP	14	96	6
TAP	14	192	1
TAP	14	288	6
TAP	15	0	1
TAP	15	96	6
TAP	15	192	1
TAP	15	288	6
TAP	16	0	0
TAP	16	96	7
TAP	16	192	0
TAP	16	288	7
TAP	17	0	0
TAP	17	96	7
TAP	17	192	0
TAP	17	288	7
TAP	18	0	1
TAP	18	96	6
TAP	18	192	1
TAP	18	288	6
TAP	19	0	1
TAP	19	96	6
TAP	19	192	1
TAP	19	288	6
TAP	20	0	0
TAP	20	96	1
TAP	20	192	0
TAP	20	288	1
TAP	21	0	0
TAP	21	96	1
TAP	21	192	0
TAP	21	288	1
TAP	22	0	7
TAP	22	96	6
TAP	22	192	7
TAP	22	288	6
TAP	23	0	7
TAP	23	96	6
TAP	23	192	7
TAP	23	288	6
TAP	24	0	4
TAP	24	96	3
TAP	24	192	4
TAP	24	288	3
TAP	25	0	4
TAP	25	96	3
TAP	25	192	4
TAP	25	288	3
STR	26	0	5
SI_	26	0	5	96	96	1
STR	27	0	1
SI_	27	0	1	96	96	6
TAP	28	0	6
TAP	28	96	7
TAP	28	192	6
TAP	28	288	7
TAP	29	0	6
TAP	29	96	7
TAP	29	192	6
TAP	29	288	7
TAP	30	0	0
TAP	30	96	1
TAP	30	192	0
TAP	30	288	1
TAP	31	0	0
TAP	31	96	1
TAP	31	192	0
TAP	31	288	1
TAP	32	0	4
TAP	32	96	3
TAP	32	192	4
TAP	32	288	3
TAP	33	0	4
TAP	33	96	3
TAP	33	192	4
TAP	33	288	3
TAP	34	0	7
TAP	34	96	0
TAP	34	192	7
TAP	34	288	0
TAP	35	0	6
TAP	35	96	7
TAP	35	192	0
TAP	35	192	7
BRK	35	288	0
TAP	36	0	6
TAP	36	96	7
TAP	36	192	6
TAP	36	288	7
TAP	37	0	6
TAP	37	96	7
TAP	37	192	6
TAP	37	288	7
TAP	38	0	0
TAP	38	96	1
TAP	38	192	0
TAP	38	288	1
TAP	39	0	0
TAP	39	96	1
TAP	39	192	0
TAP	39	288	1
TAP	40	0	4
TAP	40	96	3
TAP	40	192	4
TAP	40	288	3
TAP	41	0	4
TAP	41	96	3
TAP	41	192	4
TAP	41	288	3
TAP	42	0	7
TAP	42	96	0
TAP	42	192	7
TAP	42	288	0
TAP	43	0	7
TAP	43	96	0
TAP	43	192	7
TAP	43	288	0
TAP	44	0	6
TAP	44	0	7
TAP	44	96	6
TAP	44	96	7
TAP	44	192	6
TAP	44	192	7
TAP	46	0	0
TAP	46	0	1
TAP	46	96	0
TAP	46	96	1
TAP	46	192	0
TAP	46	192	1
TAP	48	0	3
TAP	48	0	4
TAP	48	96	3
TAP	48	96	4
TAP	48	192	3
TAP	48	192	4
TAP	50	0	0
TAP	50	0	7
TAP	50	96	0
TAP	50	96	7
TAP	50	192	0
TAP	50	192	7
TAP	52	0	6
TAP	52	96	7
TAP	52	192	6
TAP	52	288	7
TAP	53	0	6
TAP	53	96	7
TAP	53	192	6
TAP	53	288	7
TAP	54	0	0
TAP	54	96	1
TAP	54	192	0
TAP	54	288	1
TAP	55	0	0
TAP	55	96	1
TAP	55	192	0
TAP	55	288	1
TAP	56	0	4
TAP	56	96	3
TAP	56	192	4
TAP	56	288	3
TAP	57	0	4
TAP	57	96	3
TAP	57	192	4
TAP	57	288	3
TAP	58	0	7
TAP	58	96	0
TAP	58	192	7
TAP	58	288	0
TAP	59	0	6
TAP	59	96	7
TAP	59	192	0
TAP	59	192	7
BRK	59	288	0
TAP	60	0	6
TAP	60	96	7
TAP	60	192	6
TAP	60	288	7
TAP	61	0	6
TAP	61	96	7
TAP	61	192	6
TAP	61	288	7
TAP	62	0	0
TAP	62	96	1
TAP	62	192	0
TAP	62	288	1
TAP	63	0	0
TAP	63	96	1
TAP	63	192	0
TAP	63	288	1
TAP	64	0	4
TAP	64	96	3
TAP	64	192	4
TAP	64	288	3
TAP	65	0	4
TAP	65	96	3
TAP	65	192	4
TAP	65	288	3
TAP	66	0	7
TAP	66	96	0
TAP	66	192	7
TAP	66	288	0
TAP	67	0	7
TAP	67	96	0
TAP	67	192	0
TAP	67	192	7
TAP	67	288	0
TAP	67	288	7

T_REC_TAP	218
T_REC_BRK	2
T_REC_XTP	0
T_REC_HLD	2
T_REC_XHO	0
T_REC_STR	4
T_REC_BST	0
T_REC_XST	0
T_REC_TTP	0
T_REC_THO	0
T_REC_SLD	4
T_REC_ALL	230
T_NUM_TAP	222
T_NUM_BRK	2
T_NUM_HLD	2
T_NUM_SLD	4
T_NUM_ALL	230
T_JUDGE_TAP	224
T_JUDGE_HLD	12
T_JUDGE_SLD	4
T_JUDGE_ALL	240
TTM_EACHPAIRS	20
TTM_SCR_TAP	111000
TTM_SCR_BRK	5200
TTM_SCR_HLD	2000
TTM_SCR_SLD	6000
TTM_SCR_ALL	124200
TTM_SCR_S	120300
TTM_SCR_SS	124000
TTM_RAT_ACV	10016

