VERSION	0.00.00	1.03.00
FES_MODE	0
BPM_DEF	140.060	140.060	140.060	140.060
MET_DEF	4	4
RESOLUTION	384
CLK_DEF	384
COMPATIBLE_CODE	MA2

BPM	0	0	140.060
MET	0	0	4	4

TAP	2	0	7
TAP	2	96	4
TAP	2	144	4
TAP	2	240	5
TAP	2	288	5
TAP	2	336	6
TAP	3	0	0
TAP	3	96	3
TAP	3	144	3
TAP	3	240	2
TAP	3	288	2
TAP	3	336	1
TAP	4	0	5
TAP	4	96	6
TAP	4	144	7
TAP	4	240	5
TAP	4	288	4
TAP	4	336	5
TAP	5	0	2
TAP	5	96	0
TAP	5	144	2
TAP	5	240	0
TAP	5	288	1
TAP	5	336	0
TAP	6	0	6
TAP	6	96	0
TAP	6	144	1
TAP	6	240	1
TAP	6	240	6
TAP	6	288	2
TAP	6	288	5
TAP	6	336	3
TAP	6	336	4
TAP	7	0	2
TAP	7	96	4
TAP	7	144	5
TAP	7	240	2
TAP	7	240	5
TAP	7	288	1
TAP	7	288	6
TAP	7	336	0
TAP	7	336	7
TAP	8	0	1
TAP	8	0	6
TAP	8	96	3
TAP	8	144	4
TAP	8	240	0
TAP	8	240	5
TAP	8	288	7
TAP	8	312	6
TAP	8	336	7
TAP	8	360	6
TAP	9	0	7
TAP	9	48	0
TAP	9	96	1
TAP	9	144	2
TAP	9	192	3
TAP	9	240	4
TAP	9	240	5
TAP	9	288	4
TAP	9	288	6
TAP	9	336	4
BRK	9	336	7
TAP	10	0	0
TAP	10	96	6
TAP	10	144	7
TAP	10	240	1
TAP	10	240	7
TAP	10	336	0
TAP	10	336	6
HLD	11	0	5	96
TAP	11	96	3
TAP	11	144	3
HLD	11	192	2	96
TAP	11	288	4
TAP	11	336	4
TAP	12	0	7
TAP	12	96	1
TAP	12	144	0
TAP	12	240	0
TAP	12	240	6
TAP	12	336	1
TAP	12	336	7
HLD	13	0	2	96
TAP	13	96	4
TAP	13	144	4
HLD	13	192	5	96
TAP	13	288	3
TAP	13	336	3
TAP	14	0	1
TAP	14	0	5
TAP	14	96	0
TAP	14	144	6
TAP	14	240	2
TAP	14	240	6
TAP	14	336	0
TAP	14	336	4
HLD	15	0	5	96
TAP	15	96	1
TAP	15	144	0
HLD	15	192	2	96
TAP	15	288	6
TAP	15	336	7
TAP	16	0	2
TAP	16	0	6
TAP	16	96	7
TAP	16	144	1
TAP	16	240	1
TAP	16	240	5
TAP	16	336	3
TAP	16	336	7
TAP	17	0	4
TAP	17	48	2
TAP	17	96	1
TAP	17	120	0
TAP	17	144	1
TAP	17	240	5
BRK	17	240	7
TAP	18	48	1
TAP	18	48	7
TAP	18	144	0
TAP	18	144	2
TAP	18	240	2
TAP	18	240	4
TAP	18	336	1
TAP	18	336	3
TAP	19	48	0
TAP	19	48	6
TAP	19	144	5
TAP	19	144	7
TAP	19	240	3
TAP	19	240	5
TAP	19	336	4
TAP	19	336	6
TAP	20	48	2
TAP	20	48	5
TAP	20	144	0
TAP	20	144	7
TAP	20	240	3
TAP	20	240	4
TAP	20	336	1
TAP	20	336	6
TAP	21	48	3
TAP	21	48	7
TAP	21	144	0
TAP	21	144	4
TAP	21	240	2
TAP	21	240	6
TAP	21	336	1
TAP	21	336	5
TAP	22	48	0
TAP	22	48	2
TAP	22	96	3
TAP	22	240	5
TAP	22	240	7
TAP	22	288	4
TAP	23	48	1
TAP	23	48	3
TAP	23	96	0
TAP	23	240	4
TAP	23	240	6
TAP	23	288	7
TAP	24	48	4
TAP	24	48	5
TAP	24	96	6
TAP	24	96	7
TAP	24	240	2
TAP	24	240	3
TAP	24	288	0
TAP	24	288	1
TAP	25	48	0
TAP	25	48	5
TAP	25	96	3
TAP	25	96	6
TAP	25	240	2
TAP	25	240	7
TAP	25	288	1
TAP	25	288	4
TAP	26	48	5
TAP	26	48	6
TAP	26	96	7
TAP	26	144	4
TAP	26	240	1
TAP	26	240	2
TAP	26	288	0
TAP	26	336	3
TAP	27	48	0
TAP	27	96	5
TAP	27	96	6
TAP	27	144	3
TAP	27	240	7
TAP	27	288	1
TAP	27	288	2
TAP	27	336	4
TAP	28	48	1
TAP	28	48	7
TAP	28	96	0
TAP	28	144	1
TAP	28	144	7
TAP	28	240	0
TAP	28	240	6
TAP	28	288	7
TAP	28	336	0
TAP	28	336	6
TAP	29	48	1
TAP	29	48	3
TAP	29	96	2
TAP	29	144	3
TAP	29	144	5
TAP	29	240	4
TAP	29	240	6
TAP	29	288	5
TAP	29	336	2
TAP	29	336	4
TAP	30	48	3
TAP	30	48	6
TAP	30	96	4
TAP	30	120	5
TAP	30	144	4
TAP	30	240	1
TAP	30	240	4
TAP	30	288	3
TAP	30	312	2
TAP	30	336	3
TAP	31	48	4
TAP	31	48	5
TAP	31	96	6
TAP	31	120	7
TAP	31	144	6
TAP	31	240	2
TAP	31	240	3
TAP	31	288	1
TAP	31	312	0
TAP	31	336	1
TAP	32	0	6
TAP	32	48	5
TAP	32	48	7
TAP	32	96	0
TAP	32	120	7
TAP	32	144	0
TAP	32	192	1
TAP	32	240	0
TAP	32	240	2
TAP	32	288	7
TAP	32	312	0
TAP	32	336	7
TAP	33	48	2
TAP	33	48	3
TAP	33	96	4
TAP	33	96	5
TAP	33	240	1
TAP	33	240	6
TAP	33	288	0
TAP	33	312	7
BRK	33	336	0
TAP	34	0	2
TAP	34	0	6
TAP	34	96	3
TAP	34	144	1
TAP	34	240	1
TAP	34	240	5
TAP	34	336	0
TAP	34	336	4
TAP	35	48	1
TAP	35	48	7
TAP	35	96	0
TAP	35	96	6
TAP	35	144	5
TAP	35	144	7
TAP	35	240	2
TAP	35	240	4
TAP	35	336	0
TAP	35	336	3
TAP	36	0	1
TAP	36	0	5
TAP	36	96	4
TAP	36	144	6
TAP	36	240	2
TAP	36	240	6
TAP	36	336	3
TAP	36	336	7
TAP	37	48	4
TAP	37	96	5
HLD	37	144	6	144
TAP	37	192	2
TAP	37	240	3
TAP	37	288	2
HLD	37	336	1	96
HLD	38	0	5	288
TAP	38	96	0
TAP	38	144	1
HLD	38	192	2	96
HLD	38	336	3	96
HLD	39	0	4	288
TAP	39	192	2
TAP	39	288	0
TAP	40	0	1
TAP	40	48	1
TAP	40	144	4
TAP	40	192	5
TAP	40	240	3
TAP	40	240	6
TAP	40	288	2
TAP	40	336	1
TAP	41	0	2
TAP	41	48	1
TAP	41	96	0
TAP	41	120	7
TAP	41	192	4
TAP	41	240	5
TAP	41	288	6
TAP	41	312	0
TAP	41	336	6
TAP	42	0	1
TAP	42	0	5
TAP	42	96	4
TAP	42	144	6
TAP	42	240	2
TAP	42	240	6
TAP	42	336	3
TAP	42	336	7
TAP	43	48	0
TAP	43	48	6
TAP	43	96	1
TAP	43	96	7
TAP	43	144	0
TAP	43	144	2
TAP	43	240	3
TAP	43	240	5
TAP	43	336	4
TAP	43	336	7
TAP	44	0	2
TAP	44	0	6
TAP	44	96	3
TAP	44	144	1
TAP	44	240	1
TAP	44	240	5
TAP	44	336	0
TAP	44	336	4
TAP	45	48	6
TAP	45	96	4
HLD	45	144	5	144
TAP	45	192	3
TAP	45	240	1
TAP	45	288	2
HLD	45	336	0	96
HLD	46	0	7	288
TAP	46	96	1
HLD	46	144	2	96
TAP	46	288	3
HLD	46	336	4	240
HLD	47	0	6	288
TAP	47	288	5
HLD	47	336	4	96
TAP	48	96	6
HLD	48	144	5	96
TAP	48	192	3
TAP	48	240	2
TAP	48	288	1
TAP	48	288	7
HLD	48	336	6	96
TAP	49	96	0
TAP	49	120	7
TAP	49	144	0
TAP	49	168	7
TAP	49	192	0
TAP	49	240	1
TAP	49	240	7
TAP	49	288	0
TAP	49	288	2
TAP	49	336	1
TAP	49	336	3
BRK	50	0	2
STR	50	0	4
SCR	50	0	4	96	288	7

T_REC_TAP	348
T_REC_BRK	4
T_REC_XTP	0
T_REC_HLD	21
T_REC_XHO	0
T_REC_STR	1
T_REC_BST	0
T_REC_XST	0
T_REC_TTP	0
T_REC_THO	0
T_REC_SLD	1
T_REC_ALL	375
T_NUM_TAP	349
T_NUM_BRK	4
T_NUM_HLD	21
T_NUM_SLD	1
T_NUM_ALL	375
T_JUDGE_TAP	353
T_JUDGE_HLD	63
T_JUDGE_SLD	1
T_JUDGE_ALL	417
TTM_EACHPAIRS	99
TTM_SCR_TAP	174500
TTM_SCR_BRK	10400
TTM_SCR_HLD	21000
TTM_SCR_SLD	1500
TTM_SCR_ALL	207400
TTM_SCR_S	200800
TTM_SCR_SS	207000
TTM_RAT_ACV	10019

