VERSION	0.00.00	1.03.00
FES_MODE	0
BPM_DEF	140.060	140.060	140.060	140.060
MET_DEF	4	4
RESOLUTION	384
CLK_DEF	384
COMPATIBLE_CODE	MA2

BPM	0	0	140.060
MET	0	0	4	4

HLD	2	0	0	96
HLD	2	144	0	144
HLD	2	144	1	144
HLD	3	0	3	96
HLD	3	144	2	144
HLD	3	144	3	144
HLD	4	0	7	96
HLD	4	144	0	144
HLD	4	144	7	144
HLD	5	0	3	96
HLD	5	144	3	144
HLD	5	144	4	144
HLD	6	0	7	96
HLD	6	144	6	144
HLD	6	144	7	144
HLD	7	0	4	96
HLD	7	144	4	144
HLD	7	144	5	144
HLD	8	0	0	96
HLD	8	144	0	144
HLD	8	144	7	144
TAP	9	0	1
TAP	9	96	2
TAP	9	192	6
TAP	9	288	5
TAP	10	0	0
TAP	10	96	2
TAP	10	144	5
TAP	10	240	1
TAP	10	240	7
TAP	10	336	0
TAP	10	336	6
TAP	11	48	5
TAP	11	144	5
TAP	11	240	5
TAP	11	336	5
TAP	12	0	7
TAP	12	96	5
TAP	12	144	2
TAP	12	240	0
TAP	12	240	6
TAP	12	336	1
TAP	12	336	7
TAP	13	48	2
TAP	13	144	2
TAP	13	240	2
TAP	13	336	2
TAP	14	0	7
TAP	14	96	3
TAP	14	144	2
TAP	14	240	1
TAP	14	240	4
TAP	14	336	3
TAP	14	336	6
TAP	15	48	5
TAP	15	144	5
TAP	15	240	5
TAP	15	336	5
TAP	16	0	0
TAP	16	96	4
TAP	16	144	5
TAP	16	240	3
TAP	16	240	6
TAP	16	336	1
TAP	16	336	4
TAP	17	48	2
TAP	17	48	7
TAP	17	144	0
TAP	17	144	5
TAP	17	240	3
TAP	17	240	6
TAP	17	336	1
TAP	17	336	4
TAP	18	48	3
TAP	18	144	2
TAP	18	144	3
TAP	18	240	3
TAP	18	336	2
TAP	18	336	3
TAP	19	48	4
TAP	19	144	4
TAP	19	144	5
TAP	19	240	4
TAP	19	336	4
TAP	19	336	5
TAP	20	48	1
TAP	20	144	1
TAP	20	144	3
TAP	20	240	1
TAP	20	336	1
TAP	20	336	3
TAP	21	48	6
TAP	21	144	4
TAP	21	144	6
TAP	21	240	6
TAP	21	336	4
TAP	21	336	6
TAP	22	48	3
TAP	22	144	2
TAP	22	144	3
TAP	22	240	1
TAP	22	336	1
TAP	22	336	2
TAP	23	48	4
TAP	23	144	4
TAP	23	144	5
TAP	23	240	6
TAP	23	336	5
TAP	23	336	6
TAP	24	48	2
TAP	24	144	2
TAP	24	144	3
TAP	24	240	4
TAP	24	336	3
TAP	24	336	4
TAP	25	48	5
TAP	25	144	4
TAP	25	144	5
TAP	25	240	3
TAP	25	336	3
TAP	25	336	4
STR	26	48	2
SCR	26	48	2	96	96	5
STR	26	240	1
SCL	26	240	1	96	96	6
TAP	27	48	5
TAP	27	144	4
TAP	27	240	3
TAP	27	336	2
STR	28	48	5
SCL	28	48	5	96	96	2
STR	28	240	6
SCR	28	240	6	96	96	1
TAP	29	48	2
TAP	29	144	3
TAP	29	240	4
TAP	29	336	5
TAP	30	48	0
TAP	30	144	0
TAP	30	144	4
TAP	30	240	1
TAP	30	336	1
TAP	30	336	5
TAP	31	48	2
TAP	31	144	2
TAP	31	144	6
TAP	31	240	3
TAP	31	336	3
TAP	31	336	7
TAP	32	48	6
TAP	32	144	2
TAP	32	144	6
TAP	32	240	5
TAP	32	336	1
TAP	32	336	5
TAP	33	48	4
TAP	33	144	0
TAP	33	144	4
TAP	33	240	3
TAP	33	240	7
TAP	33	336	0
TAP	33	336	4
TAP	34	0	1
TAP	34	96	5
TAP	34	144	4
TAP	34	240	1
HLD	34	240	7	96
STR	34	336	6
SI_	34	336	6	96	144	3
TAP	36	0	6
TAP	36	96	2
TAP	36	144	3
HLD	36	240	0	96
TAP	36	240	6
STR	36	336	1
SI_	36	336	1	96	144	4
TAP	37	288	5
HLD	37	336	5	192
TAP	38	96	4
HLD	38	144	4	192
TAP	38	288	3
HLD	38	336	3	192
TAP	39	96	2
HLD	39	144	2	144
STR	39	288	1
SCL	39	288	1	96	96	6
TAP	40	240	7
TAP	40	288	0
TAP	40	336	7
TAP	41	48	4
TAP	41	48	5
TAP	41	144	6
TAP	41	144	7
TAP	41	240	2
TAP	41	240	3
TAP	41	336	0
TAP	41	336	1
TAP	42	0	7
TAP	42	96	2
TAP	42	144	1
BRK	42	240	0
BRK	42	240	4
HLD	42	336	2	336
HLD	42	336	6	336
TAP	44	0	0
TAP	44	96	5
TAP	44	144	6
BRK	44	240	3
BRK	44	240	7
HLD	44	336	1	144
HLD	44	336	5	144
TAP	45	192	3
TAP	45	288	2
HLD	45	336	1	192
TAP	46	96	3
HLD	46	144	4	192
TAP	46	288	3
HLD	46	336	2	192
TAP	47	96	5
HLD	47	144	5	192
TAP	47	288	2
HLD	47	336	3	192
TAP	48	96	5
HLD	48	144	4	192
TAP	48	288	7
HLD	48	336	0	240
TAP	49	96	4
HLD	49	192	4	480
STR	49	288	2
SI_	49	288	2	96	288	6

T_REC_TAP	171
T_REC_BRK	4
T_REC_XTP	0
T_REC_HLD	39
T_REC_XHO	0
T_REC_STR	8
T_REC_BST	0
T_REC_XST	0
T_REC_TTP	0
T_REC_THO	0
T_REC_SLD	8
T_REC_ALL	230
T_NUM_TAP	179
T_NUM_BRK	4
T_NUM_HLD	39
T_NUM_SLD	8
T_NUM_ALL	230
T_JUDGE_TAP	183
T_JUDGE_HLD	134
T_JUDGE_SLD	8
T_JUDGE_ALL	325
TTM_EACHPAIRS	54
TTM_SCR_TAP	89500
TTM_SCR_BRK	10400
TTM_SCR_HLD	39000
TTM_SCR_SLD	12000
TTM_SCR_ALL	150900
TTM_SCR_S	146000
TTM_SCR_SS	150500
TTM_RAT_ACV	10026

