VERSION	0.00.00	1.03.00
FES_MODE	0
BPM_DEF	140.060	140.060	140.060	140.060
MET_DEF	4	4
RESOLUTION	384
CLK_DEF	384
COMPATIBLE_CODE	MA2

BPM	0	0	140.060
MET	0	0	4	4

HLD	2	0	3	192
TAP	2	192	2
HLD	3	0	1	192
TAP	3	192	0
HLD	4	0	7	192
TAP	4	192	6
HLD	5	0	5	192
TAP	5	192	4
HLD	6	0	3	192
TAP	6	192	2
HLD	7	0	1	192
TAP	7	192	0
TAP	8	0	1
TAP	8	0	5
TAP	8	192	2
TAP	8	192	6
TAP	9	0	0
TAP	9	0	6
TAP	9	96	7
TAP	9	192	1
TAP	9	192	6
TAP	9	288	0
TAP	10	0	1
TAP	10	96	0
TAP	10	144	0
TAP	10	240	2
TAP	10	336	0
TAP	10	336	2
TAP	11	96	3
TAP	11	96	5
TAP	11	288	2
TAP	11	288	4
TAP	12	0	6
TAP	12	96	7
TAP	12	144	7
TAP	12	240	5
TAP	12	336	5
TAP	12	336	7
TAP	13	96	2
TAP	13	96	6
TAP	13	288	1
TAP	13	288	5
TAP	14	0	5
TAP	14	96	4
TAP	14	144	4
TAP	14	240	3
TAP	14	336	3
TAP	14	336	4
TAP	15	96	0
TAP	15	96	6
TAP	15	288	1
TAP	15	288	7
TAP	16	0	2
TAP	16	96	3
TAP	16	144	3
TAP	16	240	4
TAP	16	336	3
TAP	16	336	4
TAP	17	96	0
TAP	17	96	7
BRK	17	288	1
TAP	17	288	6
TAP	18	0	1
TAP	18	0	7
TAP	18	96	2
TAP	18	192	1
TAP	18	288	2
TAP	19	0	2
TAP	19	0	5
TAP	19	96	4
TAP	19	192	5
TAP	19	288	4
TAP	20	0	0
TAP	20	0	4
TAP	20	96	7
TAP	20	192	0
TAP	20	288	7
TAP	21	0	2
TAP	21	0	7
TAP	21	96	3
TAP	21	192	2
TAP	21	288	3
TAP	22	0	3
TAP	22	0	6
TAP	22	96	5
TAP	22	192	6
TAP	22	288	5
TAP	23	0	1
TAP	23	0	5
TAP	23	96	0
TAP	23	192	1
TAP	23	288	0
TAP	24	0	0
TAP	24	0	5
TAP	24	96	6
TAP	24	192	5
TAP	24	288	6
TAP	25	0	1
TAP	25	0	6
TAP	25	96	0
TAP	25	192	1
TAP	25	288	0
STR	26	0	7
SI_	26	0	7	96	192	3
TAP	27	0	4
TAP	27	96	3
TAP	27	192	4
TAP	27	288	3
TAP	28	0	5
TAP	28	96	5
TAP	28	192	7
TAP	28	288	7
TAP	29	0	2
TAP	29	96	2
TAP	29	192	0
TAP	29	288	0
STR	30	0	6
SCR	30	0	6	96	192	1
STR	31	0	0
SI_	31	0	0	96	192	4
TAP	32	0	2
TAP	32	96	3
TAP	32	192	4
TAP	32	288	5
STR	33	0	5
SCL	33	0	5	96	192	2
HLD	34	0	6	96
TAP	34	96	0
TAP	34	144	0
TAP	34	240	5
TAP	34	240	7
TAP	34	336	6
TAP	35	96	2
TAP	35	96	6
TAP	35	288	1
TAP	35	288	5
HLD	36	0	1	96
TAP	36	96	7
TAP	36	144	7
TAP	36	240	0
TAP	36	240	2
TAP	36	336	1
TAP	37	96	1
TAP	37	96	5
TAP	37	192	0
TAP	37	240	1
TAP	37	288	0
HLD	37	335	2	337
TAP	38	96	4
TAP	38	192	5
TAP	38	288	4
HLD	39	0	5	288
TAP	39	96	3
TAP	39	192	2
TAP	39	288	3
TAP	40	0	1
TAP	40	48	1
TAP	40	192	0
TAP	40	192	6
TAP	40	288	1
TAP	40	288	7
STR	41	0	2
SI_	41	0	2	96	96	7
HLD	42	0	6	96
TAP	42	96	0
TAP	42	144	0
TAP	42	240	5
TAP	42	240	7
TAP	42	336	6
TAP	43	96	3
TAP	43	96	7
TAP	43	288	2
TAP	43	288	6
HLD	44	0	1	96
TAP	44	96	7
TAP	44	144	7
TAP	44	240	0
TAP	44	240	2
TAP	44	336	1
TAP	45	96	0
TAP	45	96	4
TAP	45	192	7
TAP	45	240	6
TAP	45	288	7
HLD	45	336	6	336
TAP	46	96	0
TAP	46	192	1
TAP	46	288	0
HLD	47	0	0	288
TAP	47	96	7
TAP	47	192	6
TAP	47	288	7
STR	48	0	2
SI_	48	0	2	96	96	7
TAP	49	0	6
TAP	49	96	7
TAP	49	192	0
TAP	49	288	1
HLD	50	0	1	576

T_REC_TAP	171
T_REC_BRK	1
T_REC_XTP	0
T_REC_HLD	15
T_REC_XHO	0
T_REC_STR	6
T_REC_BST	0
T_REC_XST	0
T_REC_TTP	0
T_REC_THO	0
T_REC_SLD	6
T_REC_ALL	199
T_NUM_TAP	177
T_NUM_BRK	1
T_NUM_HLD	15
T_NUM_SLD	6
T_NUM_ALL	199
T_JUDGE_TAP	178
T_JUDGE_HLD	71
T_JUDGE_SLD	6
T_JUDGE_ALL	255
TTM_EACHPAIRS	36
TTM_SCR_TAP	88500
TTM_SCR_BRK	2600
TTM_SCR_HLD	15000
TTM_SCR_SLD	9000
TTM_SCR_ALL	115100
TTM_SCR_S	111550
TTM_SCR_SS	115000
TTM_RAT_ACV	10008

