VERSION	0.00.00	1.03.00
FES_MODE	0
BPM_DEF	140.060	140.060	140.060	140.060
MET_DEF	4	4
RESOLUTION	384
CLK_DEF	384
COMPATIBLE_CODE	MA2

BPM	0	0	140.060
MET	0	0	4	4

HLD	3	0	5	192
HLD	4	0	3	192
HLD	5	0	1	192
HLD	6	0	7	192
HLD	7	0	5	192
HLD	8	0	7	192
TAP	9	0	2
TAP	9	0	3
TAP	9	192	3
TAP	9	192	4
TAP	10	0	0
TAP	10	0	1
TAP	10	96	0
TAP	10	96	1
TAP	10	288	0
TAP	11	96	7
TAP	11	288	0
TAP	12	0	6
TAP	12	0	7
TAP	12	96	6
TAP	12	96	7
TAP	12	288	7
TAP	13	96	0
TAP	13	288	7
TAP	14	0	2
TAP	14	0	3
TAP	14	96	2
TAP	14	96	3
TAP	14	288	3
TAP	15	96	4
TAP	15	288	6
TAP	16	0	4
TAP	16	0	5
TAP	16	96	4
TAP	16	96	5
TAP	16	288	1
HLD	17	96	0	192
TAP	18	96	0
TAP	18	288	0
TAP	18	288	7
TAP	19	96	7
TAP	19	288	0
TAP	19	288	7
TAP	20	96	0
TAP	20	288	1
TAP	20	288	6
TAP	21	96	7
TAP	21	288	1
TAP	21	288	6
TAP	22	96	5
TAP	22	288	2
TAP	22	288	5
TAP	23	96	3
TAP	23	288	3
TAP	23	288	4
TAP	24	96	4
TAP	24	288	4
TAP	24	288	5
TAP	25	96	5
TAP	25	288	6
STR	26	96	6
SI_	26	96	6	96	96	2
TAP	27	96	1
TAP	27	288	0
TAP	27	288	1
TAP	28	96	6
TAP	28	288	6
TAP	28	288	7
TAP	29	96	1
TAP	29	288	0
TAP	29	288	1
TAP	30	96	0
TAP	30	288	1
TAP	30	288	7
TAP	31	96	7
TAP	31	288	0
TAP	31	288	6
TAP	32	96	0
TAP	32	288	1
TAP	32	288	3
STR	33	96	1
SI_	33	96	1	96	96	5
TAP	34	0	6
TAP	34	0	7
TAP	34	96	6
TAP	34	96	7
TAP	34	288	7
TAP	35	96	0
TAP	35	288	1
TAP	36	0	0
TAP	36	0	1
TAP	36	96	0
TAP	36	96	1
TAP	36	288	1
TAP	37	96	2
TAP	37	192	3
TAP	37	288	4
TAP	38	0	5
TAP	38	96	6
TAP	38	288	6
TAP	39	96	1
TAP	39	288	1
TAP	40	96	2
TAP	40	288	2
TAP	41	0	0
TAP	41	96	0
BRK	41	192	7
TAP	41	288	0
TAP	41	288	7
TAP	42	0	0
TAP	42	0	1
TAP	42	96	0
TAP	42	96	1
TAP	42	288	0
TAP	43	96	7
TAP	43	288	6
TAP	44	0	6
TAP	44	0	7
TAP	44	96	6
TAP	44	96	7
TAP	44	288	6
TAP	45	96	6
STR	45	288	7
SI_	45	288	7	96	96	3
STR	46	288	0
SI_	46	288	0	96	96	4
TAP	47	288	5
TAP	48	96	6
TAP	48	288	6
TAP	48	288	7
TAP	49	96	6
TAP	49	192	7
BRK	49	288	0
HLD	50	0	1	576

T_REC_TAP	116
T_REC_BRK	2
T_REC_XTP	0
T_REC_HLD	8
T_REC_XHO	0
T_REC_STR	4
T_REC_BST	0
T_REC_XST	0
T_REC_TTP	0
T_REC_THO	0
T_REC_SLD	4
T_REC_ALL	134
T_NUM_TAP	120
T_NUM_BRK	2
T_NUM_HLD	8
T_NUM_SLD	4
T_NUM_ALL	134
T_JUDGE_TAP	122
T_JUDGE_HLD	40
T_JUDGE_SLD	4
T_JUDGE_ALL	166
TTM_EACHPAIRS	33
TTM_SCR_TAP	60000
TTM_SCR_BRK	5200
TTM_SCR_HLD	8000
TTM_SCR_SLD	6000
TTM_SCR_ALL	79200
TTM_SCR_S	76650
TTM_SCR_SS	79000
TTM_RAT_ACV	10025

