VERSION	0.00.00	1.03.00
FES_MODE	0
BPM_DEF	190.000	190.000	190.000	190.000
MET_DEF	4	4
RESOLUTION	384
CLK_DEF	384
COMPATIBLE_CODE	MA2

BPM	0	0	190.000
MET	0	0	4	4

TAP	1	0	4
TAP	1	48	5
TAP	1	96	6
TAP	1	144	7
TAP	1	192	0
TAP	1	240	1
TAP	1	288	2
TAP	1	336	3
TAP	2	0	4
TAP	2	24	3
TAP	2	48	2
TAP	2	72	1
TAP	2	96	0
TAP	2	120	7
TAP	2	144	6
TAP	2	168	5
TAP	2	192	4
TAP	2	216	3
TAP	2	240	2
TAP	2	264	1
TAP	2	288	0
TAP	2	312	7
TAP	2	336	6
TAP	2	360	5
STR	3	0	4
SLL	3	0	4	96	96	0
STR	3	96	0
SI_	3	96	0	96	48	6
TAP	3	192	5
TAP	3	288	5
TAP	4	0	7
HLD	4	96	2	96
STR	4	96	7
SLL	4	96	7	96	96	2
STR	5	0	1
SI_	5	0	1	96	48	4
HLD	5	0	6	192
STR	5	192	5
SI_	5	192	5	96	48	2
STR	6	0	6
SUR	6	0	6	96	96	5
STR	6	288	2
SLR	6	288	2	96	192	7
HLD	7	0	2	192
STR	7	288	1
SI_	7	288	1	96	48	3
HLD	7	288	6	192
STR	8	96	5
SXR	8	96	5	96	192	2
TAP	8	192	7
TAP	8	288	7
TAP	9	0	7
TAP	9	96	2
TAP	9	144	2
TAP	9	192	2
TAP	9	240	2
HLD	9	288	2	240
TAP	9	336	3
HLD	10	0	3	144
STR	10	192	2
SUL	10	192	2	96	48	6
STR	10	192	3
SUR	10	192	3	96	48	7
TAP	10	288	2
TAP	10	288	3
BRK	11	0	1
TAP	11	48	0
TAP	11	96	2
TAP	11	144	7
TAP	11	192	3
TAP	11	240	6
TAP	11	288	4
TAP	11	336	5
TAP	12	0	2
TAP	12	24	3
TAP	12	48	2
TAP	12	72	3
TAP	12	96	1
TAP	12	120	4
TAP	12	144	1
TAP	12	168	4
TAP	12	192	0
TAP	12	216	5
TAP	12	240	0
TAP	12	264	5
TAP	12	288	7
TAP	12	312	6
TAP	12	336	7
TAP	12	360	6
HLD	13	0	1	96
TAP	13	48	0
TAP	13	96	7
TAP	13	192	0
HLD	13	192	5	96
TAP	13	240	7
STR	13	288	6
SI_	13	288	6	96	48	2
STR	14	0	5
SI_	14	0	5	96	48	0
TAP	14	0	6
STR	14	96	3
SSR	14	96	3	96	48	7
TAP	14	96	5
TAP	14	192	3
BRK	14	288	6
HLD	15	0	2	96
TAP	15	48	3
TAP	15	96	4
TAP	15	192	3
HLD	15	192	6	96
TAP	15	240	4
STR	15	288	5
SI_	15	288	5	96	48	1
TAP	16	0	5
STR	16	0	6
SI_	16	0	6	96	48	3
STR	16	96	0
SSL	16	96	0	96	48	4
TAP	16	96	6
TAP	16	192	0
BRK	16	288	7
HLD	17	0	5	96
TAP	17	48	4
TAP	17	96	3
HLD	17	192	1	96
TAP	17	192	4
TAP	17	240	3
STR	17	288	2
SI_	17	288	2	96	48	6
STR	18	0	1
SI_	18	0	1	96	48	4
TAP	18	0	2
TAP	18	96	1
STR	18	96	7
SLL	18	96	7	96	48	3
TAP	18	192	7
BRK	18	240	2
BRK	18	264	1
BRK	18	288	0
HLD	19	0	6	96
TAP	19	48	1
TAP	19	96	2
HLD	19	192	3	96
TAP	19	192	7
TAP	19	240	0
STR	19	288	1
SCL	19	288	1	96	288	3
BRK	20	0	3
BRK	20	48	2
BRK	20	96	1
BRK	20	144	0
BRK	20	192	7
BRK	20	240	6
BRK	20	288	5
STR	21	0	0
SUR	21	0	0	96	48	4
TAP	21	0	7
TAP	21	48	1
TAP	21	96	0
TAP	21	96	2
STR	21	192	5
SUR	21	192	5	96	48	1
TAP	21	240	6
TAP	21	288	5
STR	21	288	7
SI_	21	288	7	96	48	2
STR	22	0	7
SI_	22	0	7	96	48	4
STR	22	96	7
SF_	22	96	7	96	48	3
TAP	22	192	7
BRK	22	288	0
STR	23	0	6
SUL	23	0	6	96	48	2
TAP	23	0	7
TAP	23	48	5
TAP	23	96	4
TAP	23	96	6
STR	23	192	1
SUL	23	192	1	96	48	5
TAP	23	240	0
TAP	23	288	1
STR	23	288	7
SI_	23	288	7	96	48	2
STR	24	0	7
SI_	24	0	7	96	48	4
STR	24	96	7
SSR	24	96	7	96	96	3
TAP	25	0	0
STR	25	0	2
SI_	25	0	2	96	48	7
TAP	25	48	7
TAP	25	96	6
TAP	25	144	5
HLD	25	192	4	480
STR	25	288	5
SI_	25	288	5	96	48	2
TAP	26	0	5
STR	26	96	5
SI_	26	96	5	96	48	0
TAP	26	192	5
TAP	26	288	2
STR	27	0	1
SI_	27	0	1	96	48	4
STR	27	0	5
SI_	27	0	5	96	48	0
STR	27	96	1
SCL	27	96	1	96	48	5
STR	27	96	5
SCL	27	96	5	96	48	1
TAP	27	192	1
TAP	27	192	5
TAP	27	336	2
TAP	27	336	6
TAP	28	48	1
STR	28	96	0
SI_	28	96	0	96	48	4
STR	28	96	7
SI_	28	96	7	96	48	5
STR	28	192	0
SI_	28	192	0	96	48	2
STR	28	192	7
SI_	28	192	7	96	48	3
TAP	28	288	0
TAP	28	288	7
TAP	29	0	4
STR	29	0	5
SUR	29	0	5	96	48	1
TAP	29	48	6
TAP	29	96	5
TAP	29	96	7
STR	29	192	2
SUR	29	192	2	96	48	6
TAP	29	240	3
TAP	29	288	2
STR	29	288	4
SI_	29	288	4	96	48	1
TAP	30	0	4
STR	30	0	7
SI_	30	0	7	96	48	3
STR	30	96	7
SF_	30	96	7	96	48	3
TAP	30	192	7
BRK	30	288	0
TAP	31	0	0
STR	31	0	7
SUL	31	0	7	96	48	3
TAP	31	48	6
TAP	31	96	5
TAP	31	96	7
STR	31	192	2
SUL	31	192	2	96	48	6
TAP	31	240	1
STR	31	288	0
SI_	31	288	0	96	48	3
TAP	31	288	2
TAP	32	0	0
STR	32	0	5
SI_	32	0	5	96	48	1
STR	32	96	4
SCL	32	96	4	96	96	0
SCR	32	96	4	96	96	0
TAP	32	96	5
TAP	33	0	0
STR	33	0	2
SI_	33	0	2	96	48	7
TAP	33	48	7
TAP	33	96	6
TAP	33	144	5
TAP	33	192	4
STR	33	288	5
SI_	33	288	5	96	48	2
SLL	33	288	5	96	48	1
TAP	34	0	5
STR	34	96	5
SI_	34	96	5	96	48	0
SLR	34	96	5	96	48	1
TAP	34	192	5
TAP	34	288	5
STR	35	0	2
SI_	35	0	2	96	48	7
STR	35	0	6
SI_	35	0	6	96	48	3
STR	35	96	2
SCR	35	96	2	96	48	6
STR	35	96	6
SCR	35	96	6	96	48	2
TAP	35	192	2
TAP	35	192	6
TAP	35	336	1
TAP	35	336	5
TAP	36	48	2
STR	36	96	3
SV_	36	96	3	96	48	0
STR	36	96	4
SV_	36	96	4	96	48	7
STR	36	288	0
SI_	36	288	0	96	48	3
STR	36	288	5
SCL	36	288	5	96	48	3
TAP	37	0	0
TAP	37	0	5
STR	37	96	7
SI_	37	96	7	96	48	4
SLR	37	96	7	96	48	5
STR	37	288	1
SLR	37	288	1	96	96	7
STR	38	0	7
SI_	38	0	7	96	48	5
BRK	38	192	0
STR	38	288	2
SI_	38	288	2	96	48	7
TAP	39	0	2
STR	39	0	5
SI_	39	0	5	96	48	0
STR	39	96	1
SI_	39	96	1	96	48	4
TAP	39	96	5
TAP	39	192	1
STR	39	192	7
SI_	39	192	7	96	48	4
STR	39	288	3
SI_	39	288	3	96	48	0
SI_	39	288	3	96	48	1
TAP	39	288	7
STR	40	0	3
SI_	40	0	3	96	48	5
SI_	40	0	3	96	48	6
STR	40	96	3
SI_	40	96	3	96	48	7
SF_	40	96	3	96	48	7
BRK	40	288	1
BST	40	288	5
SI_	40	288	5	96	48	0
STR	41	0	2
SI_	41	0	2	96	48	7
TAP	41	0	5
TAP	41	96	2
STR	41	96	6
SI_	41	96	6	96	48	3
STR	41	192	0
SI_	41	192	0	96	48	3
TAP	41	192	6
TAP	41	288	0
STR	41	288	4
SI_	41	288	4	96	48	6
SI_	41	288	4	96	48	7
STR	42	0	4
SI_	42	0	4	96	48	1
SI_	42	0	4	96	48	2
STR	42	96	4
SI_	42	96	4	96	48	0
SF_	42	96	4	96	48	0
BST	42	288	2
SI_	42	288	2	96	48	5
BRK	42	288	6
TAP	43	0	2
STR	43	0	6
SI_	43	0	6	96	48	1
STR	43	96	2
SI_	43	96	2	96	48	5
TAP	43	96	6
STR	43	192	0
SI_	43	192	0	96	48	5
TAP	43	192	2
TAP	43	288	0
STR	43	288	4
SCL	43	288	4	96	48	1
TAP	44	0	5
STR	44	48	6
SI_	44	48	6	96	48	2
TAP	44	144	1
STR	44	192	0
SI_	44	192	0	96	48	4
TAP	44	288	0
BST	45	0	7
SCR	45	0	7	96	192	3
BST	45	48	0
SCR	45	48	0	96	144	3
BST	45	96	1
SCR	45	96	1	96	96	3
BRK	45	144	2
BRK	45	192	6
BST	45	240	7
SCR	45	240	7	96	192	3
BST	45	288	0
SCR	45	288	0	96	144	3
BST	45	336	1
SCR	45	336	1	96	96	3
BRK	46	0	5
BRK	46	48	6
BRK	46	96	7
BRK	46	144	0
BRK	46	192	1
BRK	46	192	6
TAP	46	288	3
TAP	46	288	4
TAP	47	0	5
TAP	47	48	5
TAP	47	72	4
TAP	47	96	6
TAP	47	144	3
TAP	47	144	7
TAP	47	192	2
TAP	47	240	2
TAP	47	264	3
TAP	47	288	1
TAP	47	336	0
TAP	47	336	4
TAP	48	0	5
TAP	48	48	5
TAP	48	72	4
STR	48	96	6
SI_	48	96	6	96	48	3
TAP	48	144	3
TAP	48	144	7
STR	48	192	2
SI_	48	192	2	96	48	7
TAP	48	192	6
TAP	48	240	1
TAP	48	288	2
TAP	48	288	4
TAP	48	336	5
TAP	49	0	1
TAP	49	0	7
TAP	49	48	2
TAP	49	72	3
TAP	49	96	1
TAP	49	144	0
TAP	49	144	4
TAP	49	192	5
TAP	49	240	5
TAP	49	264	4
TAP	49	288	6
TAP	49	336	3
TAP	49	336	7
TAP	50	0	2
TAP	50	48	2
TAP	50	72	3
STR	50	96	1
SI_	50	96	1	96	48	4
TAP	50	144	0
TAP	50	144	4
TAP	50	192	1
STR	50	192	5
SI_	50	192	5	96	48	0
TAP	50	240	6
TAP	50	288	3
TAP	50	288	5
TAP	50	336	2
TAP	51	0	0
TAP	51	0	6
TAP	51	48	5
TAP	51	72	4
TAP	51	96	6
TAP	51	144	3
TAP	51	144	7
TAP	51	192	2
TAP	51	240	2
TAP	51	264	3
STR	51	288	1
SCR	51	288	1	96	48	4
TAP	51	336	0
TAP	52	0	7
STR	52	48	6
SCR	52	48	6	96	48	1
TAP	52	96	5
TAP	52	144	4
STR	52	192	3
SCR	52	192	3	96	48	6
TAP	52	240	2
TAP	52	288	1
TAP	52	336	0
TAP	53	0	7
TAP	53	48	6
TAP	53	96	0
TAP	53	144	1
STR	53	192	4
SI_	53	192	4	96	48	0
TAP	53	240	5
TAP	53	288	4
TAP	53	288	6
TAP	53	336	7
TAP	54	0	0
TAP	54	0	7
TAP	54	48	1
TAP	54	96	2
TAP	54	96	4
TAP	54	144	6
TAP	54	168	7
TAP	54	192	0
TAP	54	216	1
TAP	54	240	2
TAP	54	264	3
TAP	54	288	0
TAP	54	288	4
TAP	55	0	5
TAP	55	48	6
TAP	55	48	7
TAP	55	96	1
TAP	55	120	0
TAP	55	144	1
TAP	55	192	2
TAP	55	240	3
TAP	55	240	5
STR	55	288	6
SI_	55	288	6	96	48	2
TAP	55	336	7
STR	56	0	0
SI_	56	0	0	96	48	4
TAP	56	0	6
TAP	56	48	1
TAP	56	96	0
TAP	56	96	4
TAP	56	144	5
STR	56	192	0
SV_	56	192	0	96	48	3
STR	56	192	6
SV_	56	192	6	96	48	3
BRK	56	288	0
BRK	56	288	6
TAP	57	0	2
TAP	57	48	0
TAP	57	48	1
TAP	57	96	6
TAP	57	120	7
TAP	57	144	6
TAP	57	192	5
TAP	57	240	2
TAP	57	240	4
STR	57	288	1
SI_	57	288	1	96	48	5
TAP	57	336	0
TAP	58	0	1
STR	58	0	7
SI_	58	0	7	96	48	3
TAP	58	48	6
TAP	58	96	3
TAP	58	96	7
TAP	58	144	2
STR	58	192	1
SV_	58	192	1	96	48	4
STR	58	192	7
SV_	58	192	7	96	48	4
BRK	58	288	1
BRK	58	288	7
TAP	59	0	6
TAP	59	48	4
TAP	59	48	5
TAP	59	96	3
TAP	59	120	2
TAP	59	144	1
TAP	59	192	0
TAP	59	192	6
TAP	59	240	0
TAP	59	240	6
STR	59	288	1
SI_	59	288	1	96	48	5
TAP	59	312	2
TAP	59	336	3
TAP	60	0	1
STR	60	0	7
SCL	60	0	7	96	48	4
TAP	60	48	6
STR	60	96	3
SCL	60	96	3	96	48	0
TAP	60	96	7
TAP	60	144	2
TAP	60	192	3
BRK	60	240	6
BRK	60	264	5
BRK	60	288	4
TAP	61	0	1
TAP	61	48	2
TAP	61	48	3
TAP	61	96	4
TAP	61	120	5
TAP	61	144	6
TAP	61	192	1
TAP	61	192	7
TAP	61	240	1
TAP	61	240	7
STR	61	288	6
SI_	61	288	6	96	48	2
TAP	61	312	5
TAP	61	336	4
STR	62	0	0
SI_	62	0	0	96	48	3
TAP	62	0	6
TAP	62	48	1
TAP	62	96	0
STR	62	96	4
SI_	62	96	4	96	48	7
TAP	62	144	5
STR	62	192	0
SV_	62	192	0	96	48	3
SV_	62	192	0	96	48	5
TAP	62	192	4
TAP	62	240	1
TAP	62	288	0
TAP	63	0	2
TAP	63	0	6
TAP	63	48	3
TAP	63	48	5
TAP	63	96	2
TAP	63	120	4
TAP	63	144	2
TAP	63	168	4
TAP	63	192	0
TAP	63	240	6
STR	63	288	5
SI_	63	288	5	96	48	1
TAP	63	312	4
TAP	63	336	5
STR	64	0	2
SI_	64	0	2	96	48	7
TAP	64	48	2
TAP	64	96	3
TAP	64	144	3
STR	64	192	4
SV_	64	192	4	96	48	1
SV_	64	192	4	96	48	7
TAP	64	204	5
TAP	64	216	6
TAP	64	228	7
TAP	64	240	0
TAP	64	252	1
TAP	64	264	2
TAP	64	276	3
BRK	64	288	4
TAP	65	0	0
TAP	65	48	1
TAP	65	48	7
TAP	65	96	5
TAP	65	120	3
TAP	65	144	5
TAP	65	168	3
TAP	65	192	7
TAP	65	240	7
STR	65	288	2
SI_	65	288	2	96	48	6
TAP	65	312	3
TAP	65	336	2
STR	66	0	5
SI_	66	0	5	96	48	0
TAP	66	48	5
TAP	66	96	4
TAP	66	144	4
STR	66	192	3
SV_	66	192	3	96	48	0
SV_	66	192	3	96	48	6
TAP	66	204	2
TAP	66	216	1
TAP	66	228	0
TAP	66	240	7
TAP	66	252	6
TAP	66	264	5
TAP	66	276	4
BRK	66	288	3
STR	67	0	7
SI_	67	0	7	96	48	3
TAP	67	48	6
STR	67	96	1
SI_	67	96	1	96	48	5
TAP	67	96	7
TAP	67	144	2
TAP	67	192	1
STR	67	192	4
SI_	67	192	4	96	48	7
TAP	67	240	3
STR	67	288	2
SI_	67	288	2	96	48	5
TAP	67	288	4
TAP	67	336	1
TAP	68	0	2
STR	68	0	7
SCL	68	0	7	96	48	4
TAP	68	48	6
STR	68	96	0
SCR	68	96	0	96	48	3
TAP	68	96	7
TAP	68	144	1
TAP	68	192	0
STR	68	192	4
SI_	68	192	4	96	48	1
SI_	68	192	4	96	48	7
TAP	68	240	5
TAP	68	288	4
BRK	69	0	1
TAP	69	24	7
TAP	69	48	3
TAP	69	72	5
BRK	69	96	1
TAP	69	120	7
TAP	69	144	0
TAP	69	168	6
BRK	69	192	7
TAP	69	216	5
TAP	69	240	1
TAP	69	264	6
BRK	69	288	2
TAP	69	312	0
TAP	69	336	3
TAP	69	360	5
BRK	70	0	5
TAP	70	32	4
TAP	70	64	6
TAP	70	96	2
TAP	70	128	3
TAP	70	160	1
TAP	70	192	4
TAP	70	204	5
TAP	70	216	6
TAP	70	228	7
TAP	70	240	0
TAP	70	252	1
TAP	70	264	2
TAP	70	276	3
BST	70	288	4
SI_	70	288	4	96	768	0
HLD	71	0	4	1536
BRK	75	0	3

T_REC_TAP	391
T_REC_BRK	41
T_REC_XTP	0
T_REC_HLD	16
T_REC_XHO	0
T_REC_STR	121
T_REC_BST	9
T_REC_XST	0
T_REC_TTP	0
T_REC_THO	0
T_REC_SLD	144
T_REC_ALL	722
T_NUM_TAP	512
T_NUM_BRK	50
T_NUM_HLD	16
T_NUM_SLD	144
T_NUM_ALL	722
T_JUDGE_TAP	562
T_JUDGE_HLD	80
T_JUDGE_SLD	144
T_JUDGE_ALL	786
TTM_EACHPAIRS	111
TTM_SCR_TAP	256000
TTM_SCR_BRK	130000
TTM_SCR_HLD	16000
TTM_SCR_SLD	216000
TTM_SCR_ALL	618000
TTM_SCR_S	594650
TTM_SCR_SS	613000
TTM_RAT_ACV	10081

