VERSION	0.00.00	1.03.00
FES_MODE	0
BPM_DEF	190.000	190.000	190.000	190.000
MET_DEF	4	4
RESOLUTION	384
CLK_DEF	384
COMPATIBLE_CODE	MA2

BPM	0	0	190.000
MET	0	0	4	4

STR	2	288	6
SI_	2	288	6	96	48	1
STR	3	96	0
SI_	3	96	0	96	48	3
STR	3	288	2
SI_	3	288	2	96	288	5
STR	4	288	0
SI_	4	288	0	96	48	5
STR	5	96	5
SI_	5	96	5	96	48	2
STR	5	288	0
SI_	5	288	0	96	288	3
HLD	7	0	6	576
STR	7	288	0
SI_	7	288	0	96	192	4
STR	8	288	5
SI_	8	288	5	96	192	2
STR	8	288	6
SI_	8	288	6	96	192	1
STR	9	288	4
SI_	9	288	4	96	96	1
STR	9	288	5
SI_	9	288	5	96	96	0
TAP	11	0	4
TAP	11	48	5
TAP	11	96	6
TAP	11	144	7
TAP	11	192	0
TAP	11	240	1
TAP	11	288	2
TAP	11	336	3
TAP	12	0	4
TAP	12	24	3
TAP	12	48	2
TAP	12	72	1
TAP	12	96	0
TAP	12	120	7
TAP	12	144	6
TAP	12	168	5
TAP	12	192	4
TAP	12	216	3
TAP	12	240	2
TAP	12	264	1
TAP	12	288	0
TAP	12	312	7
TAP	12	336	6
TAP	12	360	5
TAP	13	0	4
HLD	13	96	2	96
HLD	13	192	1	95
HLD	13	288	0	480
STR	14	0	7
SI_	14	0	7	96	96	2
STR	14	192	3
SI_	14	192	3	96	96	6
HLD	15	96	7	96
HLD	15	192	6	96
STR	15	288	5
SI_	15	288	5	96	48	2
STR	16	0	1
SI_	16	0	1	96	48	6
STR	16	96	0
SI_	16	96	0	96	48	3
BRK	16	288	1
BRK	16	288	6
HLD	17	0	5	192
TAP	17	96	3
HLD	17	192	2	192
TAP	17	288	0
HLD	18	0	7	192
TAP	18	96	5
HLD	18	192	4	192
TAP	18	288	6
HLD	19	0	2	96
HLD	19	96	1	96
HLD	19	192	7	96
HLD	19	288	5	96
TAP	20	0	4
TAP	20	48	3
TAP	20	96	2
TAP	20	144	1
TAP	20	192	2
TAP	20	240	3
TAP	20	288	4
TAP	20	336	5
TAP	21	0	7
HLD	21	48	7	96
TAP	21	144	0
TAP	21	192	1
TAP	21	240	0
TAP	21	336	7
TAP	22	0	6
TAP	22	48	5
TAP	22	96	6
TAP	22	144	7
STR	22	192	0
SI_	22	192	0	96	96	3
TAP	22	240	0
TAP	23	0	7
HLD	23	48	7	96
TAP	23	144	6
TAP	23	192	5
TAP	23	240	6
TAP	23	336	2
TAP	24	0	3
TAP	24	48	4
TAP	24	96	3
STR	24	144	2
SI_	24	144	2	96	96	5
TAP	24	192	2
TAP	25	48	4
TAP	25	96	5
TAP	25	144	4
HLD	25	192	4	96
TAP	25	336	1
TAP	25	336	4
TAP	26	48	6
TAP	26	48	7
TAP	26	144	0
TAP	26	192	1
TAP	26	240	2
TAP	26	288	1
TAP	27	0	7
TAP	27	96	6
TAP	27	144	5
TAP	27	192	6
TAP	27	288	0
HLD	27	336	1	96
TAP	28	48	2
TAP	28	96	3
TAP	28	144	4
TAP	28	192	3
TAP	28	288	6
TAP	28	336	6
TAP	29	0	0
HLD	29	48	0	96
TAP	29	144	7
TAP	29	192	6
TAP	29	240	7
TAP	29	336	0
TAP	30	0	1
TAP	30	48	2
TAP	30	96	1
TAP	30	144	0
STR	30	192	7
SI_	30	192	7	96	96	4
TAP	30	240	7
TAP	31	0	0
HLD	31	48	0	96
TAP	31	144	1
TAP	31	192	2
TAP	31	240	1
TAP	31	336	5
TAP	32	0	4
TAP	32	48	3
TAP	32	96	4
STR	32	144	5
SI_	32	144	5	96	96	2
TAP	32	192	5
TAP	33	48	3
TAP	33	96	2
TAP	33	144	3
HLD	33	192	3	96
TAP	33	336	3
TAP	33	336	6
TAP	34	48	0
TAP	34	48	1
TAP	34	144	7
TAP	34	192	6
TAP	34	240	5
TAP	34	288	6
TAP	35	0	0
TAP	35	48	0
TAP	35	96	1
TAP	35	144	2
BRK	35	192	1
TAP	35	288	7
HLD	35	336	6	96
TAP	36	48	5
TAP	36	96	4
TAP	36	144	3
TAP	36	192	4
BRK	36	288	1
TAP	37	0	4
TAP	37	48	5
TAP	37	96	6
TAP	37	144	7
TAP	37	192	0
TAP	37	240	1
TAP	37	288	2
TAP	37	336	3
TAP	38	0	4
TAP	38	24	3
TAP	38	48	2
TAP	38	72	1
TAP	38	96	0
TAP	38	120	7
TAP	38	144	6
TAP	38	168	5
TAP	38	192	4
TAP	38	216	3
TAP	38	240	2
TAP	38	264	1
TAP	38	288	0
TAP	38	312	7
TAP	38	336	6
TAP	38	360	5
STR	39	0	4
SI_	39	0	4	96	48	1
STR	39	192	3
SI_	39	192	3	96	48	6
STR	40	0	5
SI_	40	0	5	96	48	0
STR	40	192	2
SI_	40	192	2	96	48	7
STR	41	0	0
SI_	41	0	0	96	48	5
STR	41	192	7
SI_	41	192	7	96	48	2
STR	42	0	1
SI_	42	0	1	96	48	4
STR	42	192	6
SI_	42	192	6	96	48	3
STR	43	0	4
SI_	43	0	4	96	48	0
STR	43	96	2
SI_	43	96	2	96	48	5
STR	43	192	3
SI_	43	192	3	96	48	7
STR	43	288	6
SI_	43	288	6	96	48	1
STR	44	0	0
SI_	44	0	0	96	48	3
STR	44	96	6
SI_	44	96	6	96	48	1
STR	44	192	7
SI_	44	192	7	96	48	4
STR	45	0	0
SI_	45	0	0	96	48	5
STR	45	0	1
SI_	45	0	1	96	48	4
STR	45	192	6
SI_	45	192	6	96	48	3
STR	45	192	7
SI_	45	192	7	96	48	2
STR	46	0	0
SCL	46	0	0	96	48	5
STR	46	0	1
SCR	46	0	1	96	48	4
STR	46	192	6
SCL	46	192	6	96	48	3
STR	46	192	7
SCR	46	192	7	96	48	2
TAP	47	0	1
HLD	47	0	7	96
TAP	47	96	5
HLD	47	192	1	96
TAP	47	192	3
TAP	47	288	7
HLD	48	0	5	96
TAP	48	0	7
TAP	48	96	3
BRK	48	192	0
HLD	48	192	2	96
BRK	48	288	4
HLD	49	0	4	96
TAP	49	0	6
TAP	49	96	2
TAP	49	192	1
HLD	49	192	3	96
TAP	49	288	5
TAP	50	0	1
HLD	50	0	7	96
TAP	50	96	5
HLD	50	192	0	96
BRK	50	192	6
BRK	50	288	2
HLD	51	0	6	96
TAP	51	48	4
BRK	51	96	5
HLD	51	192	1	96
TAP	51	240	3
BRK	51	288	2
STR	52	0	6
SI_	52	0	6	96	47	1
STR	52	192	0
SI_	52	192	0	96	48	3
STR	53	0	3
SI_	53	0	3	96	192	0
STR	53	0	4
SI_	53	0	4	96	192	7
STR	54	0	0
SCR	54	0	0	96	192	3
STR	54	0	7
SCL	54	0	7	96	192	4
TAP	55	48	2
TAP	55	96	3
TAP	55	144	2
TAP	55	192	7
TAP	55	240	6
TAP	55	288	5
TAP	55	336	4
TAP	56	0	0
TAP	56	48	1
TAP	56	96	4
TAP	56	144	5
TAP	56	192	2
TAP	56	240	3
BRK	56	288	1
BRK	56	288	2
TAP	57	48	5
TAP	57	96	4
TAP	57	144	5
TAP	57	192	0
TAP	57	240	1
TAP	57	288	2
TAP	57	336	3
TAP	58	0	7
TAP	58	48	6
TAP	58	96	3
TAP	58	144	2
TAP	58	192	5
TAP	58	240	4
BRK	58	288	5
BRK	58	288	6
TAP	59	48	4
TAP	59	96	5
TAP	59	144	6
TAP	59	192	2
TAP	59	240	3
TAP	59	288	1
TAP	59	336	6
TAP	60	0	0
TAP	60	48	7
TAP	60	96	6
TAP	60	144	5
TAP	60	192	6
TAP	60	240	7
BRK	60	288	0
BRK	60	288	7
TAP	61	48	3
TAP	61	96	2
TAP	61	144	1
TAP	61	192	5
TAP	61	240	4
TAP	61	288	6
TAP	61	336	1
TAP	62	0	7
TAP	62	48	0
TAP	62	96	1
TAP	62	144	2
TAP	62	192	1
TAP	62	240	0
BRK	62	288	0
BRK	62	288	7
TAP	63	0	0
TAP	63	48	4
TAP	63	96	2
TAP	63	144	6
TAP	63	192	7
TAP	63	240	3
TAP	63	288	5
TAP	63	336	1
TAP	64	0	0
TAP	64	48	7
TAP	64	96	6
TAP	64	144	7
TAP	64	192	0
TAP	64	240	1
BRK	64	288	0
TAP	64	336	5
TAP	65	0	4
TAP	65	48	3
TAP	65	96	6
TAP	65	144	5
TAP	65	192	4
TAP	65	240	0
TAP	65	288	1
TAP	65	336	0
TAP	66	0	2
TAP	66	48	3
TAP	66	96	4
TAP	66	144	5
TAP	66	192	4
TAP	66	240	3
BRK	66	288	2
TAP	66	336	3
TAP	67	0	1
TAP	67	48	2
TAP	67	96	3
TAP	67	144	0
TAP	67	192	1
TAP	67	240	2
TAP	67	288	7
TAP	67	336	6
TAP	68	0	5
TAP	68	48	6
TAP	68	96	0
TAP	68	144	1
TAP	68	192	2
TAP	68	240	1
BRK	68	288	2
TAP	68	336	1
TAP	69	0	7
TAP	69	48	3
TAP	69	96	5
TAP	69	144	1
TAP	69	192	2
TAP	69	240	3
TAP	69	288	4
TAP	69	336	7
TAP	70	0	0
TAP	70	24	1
TAP	70	48	2
TAP	70	72	3
TAP	70	96	4
TAP	70	120	5
TAP	70	144	6
TAP	70	168	7
TAP	70	192	0
TAP	70	216	1
TAP	70	240	2
TAP	70	264	3
STR	70	288	4
SI_	70	288	4	96	768	0
TAP	70	312	5
TAP	70	336	6
TAP	70	360	7

T_REC_TAP	275
T_REC_BRK	21
T_REC_XTP	0
T_REC_HLD	32
T_REC_XHO	0
T_REC_STR	50
T_REC_BST	0
T_REC_XST	0
T_REC_TTP	0
T_REC_THO	0
T_REC_SLD	50
T_REC_ALL	428
T_NUM_TAP	325
T_NUM_BRK	21
T_NUM_HLD	32
T_NUM_SLD	50
T_NUM_ALL	428
T_JUDGE_TAP	346
T_JUDGE_HLD	90
T_JUDGE_SLD	50
T_JUDGE_ALL	486
TTM_EACHPAIRS	25
TTM_SCR_TAP	162500
TTM_SCR_BRK	54600
TTM_SCR_HLD	32000
TTM_SCR_SLD	75000
TTM_SCR_ALL	324100
TTM_SCR_S	312350
TTM_SCR_SS	322000
TTM_RAT_ACV	10065

