VERSION	0.00.00	1.03.00
FES_MODE	0
BPM_DEF	190.000	190.000	190.000	190.000
MET_DEF	4	4
RESOLUTION	384
CLK_DEF	384
COMPATIBLE_CODE	MA2

BPM	0	0	190.000
MET	0	0	4	4

TAP	2	192	5
TAP	2	288	6
HLD	3	0	7	768
TAP	4	192	2
TAP	4	288	1
HLD	5	0	0	768
TAP	6	192	6
TAP	6	288	5
HLD	7	0	4	384
HLD	8	0	1	144
HLD	8	144	5	144
TAP	8	288	3
STR	9	0	3
SCL	9	0	3	96	192	0
STR	9	0	7
SCL	9	0	7	96	192	4
STR	10	0	3
SCR	10	0	3	96	192	6
STR	10	0	7
SCR	10	0	7	96	192	2
HLD	11	0	4	672
TAP	12	0	0
TAP	12	96	0
TAP	12	192	0
BRK	12	288	0
TAP	13	0	1
STR	13	48	2
SI_	13	48	2	96	144	5
TAP	13	96	2
TAP	14	0	6
TAP	14	96	5
TAP	14	144	4
TAP	14	192	3
TAP	14	288	1
TAP	14	288	4
TAP	15	0	6
STR	15	48	5
SI_	15	48	5	96	144	2
TAP	15	96	5
TAP	16	0	1
TAP	16	96	2
TAP	16	144	3
TAP	16	192	4
TAP	16	288	3
TAP	16	288	6
TAP	17	0	1
TAP	17	48	2
HLD	17	96	2	288
TAP	17	192	3
TAP	17	240	3
TAP	18	0	4
TAP	18	48	3
TAP	18	96	2
TAP	18	144	1
STR	18	192	0
SI_	18	192	0	96	96	5
TAP	19	0	6
TAP	19	48	5
HLD	19	96	5	288
TAP	19	192	4
TAP	19	240	4
TAP	20	0	3
TAP	20	48	4
TAP	20	96	5
TAP	20	144	6
STR	20	192	7
SI_	20	192	7	96	96	2
TAP	21	0	0
TAP	21	96	5
TAP	21	144	5
TAP	21	192	7
TAP	21	288	2
TAP	21	336	2
TAP	22	0	0
TAP	22	48	7
TAP	22	96	6
TAP	22	144	7
TAP	22	192	0
TAP	22	240	7
TAP	22	288	6
TAP	23	0	7
TAP	23	96	3
TAP	23	144	3
TAP	23	192	0
TAP	23	288	4
TAP	23	336	4
TAP	24	0	7
TAP	24	48	0
TAP	24	96	1
TAP	24	144	0
TAP	24	192	7
TAP	24	240	0
TAP	24	288	1
TAP	25	0	6
TAP	25	96	5
TAP	25	144	5
TAP	25	192	1
TAP	25	288	2
TAP	25	336	2
TAP	26	0	5
TAP	26	48	4
TAP	26	96	3
TAP	26	144	4
TAP	26	192	5
TAP	26	240	4
TAP	26	288	3
TAP	26	336	2
TAP	27	0	1
STR	27	96	1
SI_	27	96	1	96	96	4
TAP	27	144	1
TAP	27	336	6
TAP	28	48	6
STR	28	96	6
SI_	28	96	6	96	96	3
TAP	28	144	6
TAP	29	0	0
TAP	29	0	1
TAP	29	96	6
TAP	29	192	6
TAP	29	192	7
TAP	29	288	1
STR	30	0	0
SCL	30	0	0	96	48	5
STR	30	192	1
SCL	30	192	1	96	48	6
TAP	31	0	6
TAP	31	0	7
TAP	31	96	1
TAP	31	192	0
TAP	31	192	1
TAP	31	288	6
STR	32	0	7
SCR	32	0	7	96	48	2
STR	32	192	6
SCR	32	192	6	96	48	1
TAP	33	0	2
TAP	33	0	3
TAP	33	96	5
TAP	33	192	4
TAP	33	192	5
TAP	33	288	2
TAP	34	0	2
TAP	34	48	4
TAP	34	96	3
TAP	34	144	5
TAP	34	192	4
TAP	34	240	3
TAP	34	288	2
TAP	35	0	1
TAP	35	48	1
STR	35	96	1
SI_	35	96	1	96	96	5
TAP	35	144	1
TAP	35	336	6
TAP	36	48	6
STR	36	96	6
SI_	36	96	6	96	96	2
TAP	36	144	6
BRK	38	192	5
TAP	38	192	7
BRK	38	288	1
TAP	38	288	7
BRK	39	0	5
TAP	39	0	7
TAP	39	96	2
TAP	39	96	3
TAP	39	192	0
TAP	39	192	2
TAP	39	288	4
TAP	39	288	5
TAP	40	0	5
TAP	40	0	7
TAP	40	96	2
TAP	40	96	3
TAP	40	192	0
BRK	40	192	2
TAP	40	288	0
BRK	40	288	6
TAP	41	0	0
BRK	41	0	2
TAP	41	96	4
TAP	41	96	5
TAP	41	192	5
TAP	41	192	7
TAP	41	288	2
TAP	41	288	3
TAP	42	0	0
TAP	42	0	2
TAP	42	96	4
TAP	42	96	5
BRK	42	192	5
TAP	42	192	7
BRK	42	288	1
TAP	42	288	7
BRK	43	0	5
TAP	43	0	7
TAP	43	96	2
TAP	43	96	3
TAP	43	192	0
TAP	43	192	2
TAP	43	288	4
TAP	43	288	5
TAP	44	0	0
TAP	44	0	7
TAP	44	144	1
TAP	44	144	6
TAP	44	288	2
TAP	44	288	5
TAP	45	0	3
TAP	45	0	4
TAP	45	96	2
TAP	45	192	3
TAP	45	288	4
TAP	46	0	5
TAP	46	96	4
BRK	46	192	2
TAP	46	192	3
TAP	46	288	5
BRK	46	288	6
TAP	47	0	0
BRK	47	0	1
TAP	47	96	3
TAP	47	96	5
TAP	47	192	5
TAP	47	192	6
TAP	47	288	2
TAP	47	288	4
TAP	48	0	1
TAP	48	0	2
TAP	48	96	3
TAP	48	96	5
TAP	48	192	4
BRK	48	192	5
BRK	48	288	1
TAP	48	288	2
BRK	49	0	6
TAP	49	0	7
TAP	49	96	2
TAP	49	96	4
TAP	49	192	1
TAP	49	192	2
TAP	49	288	3
TAP	49	288	5
TAP	50	0	5
TAP	50	0	6
TAP	50	96	2
TAP	50	96	4
BRK	50	192	1
TAP	50	192	2
BRK	50	288	6
TAP	50	288	7
BRK	51	0	3
TAP	51	0	4
TAP	51	96	2
TAP	51	192	3
TAP	51	192	4
TAP	51	288	5
STR	52	0	0
SI_	52	0	0	96	48	5
STR	52	144	1
SI_	52	144	1	96	48	4
STR	52	288	6
SI_	52	288	6	96	96	2
STR	53	288	1
SI_	53	288	1	96	96	5
TAP	54	192	3
BRK	54	192	7
TAP	54	288	2
BRK	54	288	6
HLD	55	0	1	480
BRK	55	0	5
TAP	55	96	3
TAP	55	192	5
TAP	55	288	4
TAP	56	0	2
TAP	56	96	3
BRK	56	192	0
TAP	56	192	4
BRK	56	288	1
TAP	56	288	5
BRK	57	0	2
HLD	57	0	6	480
TAP	57	96	4
TAP	57	192	2
TAP	57	288	3
TAP	58	0	5
TAP	58	96	4
TAP	58	192	3
BRK	58	192	7
TAP	58	288	1
BRK	58	288	5
BRK	59	0	3
HLD	59	0	7	288
TAP	59	96	4
TAP	59	192	2
TAP	59	288	5
TAP	60	0	0
TAP	60	0	1
TAP	60	96	6
TAP	60	144	5
TAP	60	144	6
TAP	60	240	2
TAP	60	288	2
TAP	60	288	3
TAP	61	0	3
TAP	61	96	4
TAP	61	192	5
TAP	61	288	6
TAP	62	0	4
TAP	62	96	3
TAP	62	192	2
TAP	62	288	1
TAP	63	0	0
TAP	63	48	0
TAP	63	96	6
TAP	63	144	5
TAP	63	192	2
TAP	63	240	1
TAP	63	288	2
TAP	63	336	3
TAP	64	0	5
TAP	64	48	4
TAP	64	96	3
TAP	64	144	4
TAP	64	192	5
BRK	64	288	0
BRK	64	288	7
TAP	65	0	7
TAP	65	48	7
TAP	65	96	1
TAP	65	144	2
TAP	65	192	5
TAP	65	240	6
TAP	65	288	5
TAP	65	336	4
TAP	66	0	2
TAP	66	48	3
TAP	66	96	4
TAP	66	144	3
TAP	66	192	2
BRK	66	288	0
BRK	66	288	7
TAP	67	0	6
TAP	67	48	6
TAP	67	96	1
TAP	67	144	4
TAP	67	192	6
TAP	67	240	5
TAP	67	288	3
TAP	67	336	2
TAP	68	0	1
TAP	68	48	1
TAP	68	96	2
TAP	68	144	4
TAP	68	192	5
TAP	68	240	5
TAP	68	288	4
TAP	68	336	2
TAP	69	0	1
TAP	69	48	1
TAP	69	96	6
TAP	69	144	3
TAP	69	192	1
TAP	69	240	2
TAP	69	288	4
TAP	69	336	5
TAP	70	0	6
TAP	70	48	6
TAP	70	96	5
TAP	70	144	3
TAP	70	192	2
TAP	70	240	2
TAP	70	288	3
TAP	70	336	5
HLD	71	0	6	1536

T_REC_TAP	292
T_REC_BRK	32
T_REC_XTP	0
T_REC_HLD	12
T_REC_XHO	0
T_REC_STR	20
T_REC_BST	0
T_REC_XST	0
T_REC_TTP	0
T_REC_THO	0
T_REC_SLD	20
T_REC_ALL	376
T_NUM_TAP	312
T_NUM_BRK	32
T_NUM_HLD	12
T_NUM_SLD	20
T_NUM_ALL	376
T_JUDGE_TAP	344
T_JUDGE_HLD	130
T_JUDGE_SLD	20
T_JUDGE_ALL	494
TTM_EACHPAIRS	70
TTM_SCR_TAP	156000
TTM_SCR_BRK	83200
TTM_SCR_HLD	12000
TTM_SCR_SLD	30000
TTM_SCR_ALL	281200
TTM_SCR_S	269700
TTM_SCR_SS	278000
TTM_RAT_ACV	10115

