VERSION	0.00.00	1.03.00
FES_MODE	0
BPM_DEF	190.000	190.000	190.000	190.000
MET_DEF	4	4
RESOLUTION	384
CLK_DEF	384
COMPATIBLE_CODE	MA2

BPM	0	0	190.000
MET	0	0	4	4

TAP	1	0	0
TAP	2	0	1
TAP	2	192	2
TAP	2	288	1
HLD	3	0	0	480
TAP	3	96	7
TAP	3	288	7
TAP	4	96	6
TAP	4	288	5
HLD	5	0	4	480
TAP	5	96	3
TAP	5	288	3
TAP	6	96	2
TAP	6	288	2
HLD	7	0	3	288
TAP	7	96	4
TAP	7	288	4
TAP	8	0	5
TAP	8	144	0
TAP	8	288	7
HLD	9	0	6	384
HLD	10	0	5	288
STR	11	0	5
SI_	11	0	5	96	192	0
TAP	13	96	6
TAP	13	192	6
TAP	13	288	2
TAP	14	0	2
TAP	14	96	1
TAP	14	192	1
TAP	14	288	2
TAP	14	288	5
TAP	15	96	5
TAP	15	192	5
TAP	15	288	1
TAP	16	0	1
TAP	16	96	2
TAP	16	192	2
TAP	16	288	1
TAP	16	288	6
TAP	17	96	4
TAP	17	192	4
TAP	17	288	1
TAP	18	0	1
TAP	18	96	6
TAP	18	192	6
TAP	18	288	0
TAP	18	288	7
TAP	19	96	7
TAP	19	192	5
TAP	19	288	6
TAP	20	0	1
TAP	20	96	3
TAP	20	192	2
TAP	20	288	0
TAP	20	288	4
TAP	21	96	5
TAP	21	192	4
TAP	21	288	5
TAP	22	0	4
TAP	22	96	3
TAP	22	192	3
TAP	22	288	3
TAP	22	288	4
TAP	23	0	2
TAP	23	96	3
TAP	23	192	2
TAP	23	288	3
TAP	24	0	1
TAP	24	96	0
TAP	24	192	7
TAP	24	288	0
TAP	24	288	7
TAP	25	0	6
TAP	25	96	5
HLD	25	192	6	192
TAP	26	96	7
TAP	26	192	0
TAP	26	288	1
TAP	27	0	2
TAP	27	96	1
TAP	27	144	1
TAP	27	192	1
TAP	28	0	7
TAP	28	96	7
TAP	28	192	3
TAP	28	288	3
HLD	29	0	0	672
TAP	29	96	4
TAP	29	288	4
TAP	30	96	4
BRK	30	288	4
HLD	31	0	6	672
TAP	31	96	1
TAP	31	288	1
TAP	32	96	1
BRK	32	288	1
HLD	33	0	2	288
TAP	33	96	1
BRK	33	288	1
HLD	34	0	6	288
TAP	34	96	7
BRK	34	288	7
HLD	35	0	0	288
TAP	35	96	7
BRK	35	288	7
TAP	36	0	6
TAP	36	96	6
TAP	36	96	7
TAP	36	192	0
TAP	36	192	7
STR	36	288	1
SCL	36	288	1	96	192	6
BRK	38	192	7
BRK	38	288	6
HLD	39	0	5	480
TAP	39	96	1
TAP	39	288	1
TAP	40	96	2
BRK	40	192	6
BRK	40	288	5
HLD	41	0	0	480
TAP	41	96	7
TAP	41	288	7
TAP	42	96	7
BRK	42	192	6
BRK	42	288	5
HLD	43	0	4	480
TAP	43	96	3
TAP	43	288	3
TAP	44	96	2
TAP	44	192	1
TAP	44	288	2
HLD	45	0	3	288
TAP	45	96	4
TAP	45	288	4
HLD	46	0	5	288
TAP	46	96	2
TAP	46	288	2
HLD	47	0	1	480
TAP	47	96	6
TAP	47	288	6
STR	48	96	5
SI_	48	96	5	96	96	0
HLD	49	0	6	480
TAP	49	96	1
TAP	49	288	1
STR	50	96	2
SI_	50	96	2	96	99	7
HLD	51	0	0	288
TAP	51	96	6
TAP	51	288	6
HLD	52	0	7	288
TAP	52	96	1
TAP	52	288	1
HLD	53	0	1	288
TAP	53	96	2
TAP	53	288	2
HLD	54	0	2	288
TAP	54	96	3
TAP	54	288	3
TAP	55	0	4
TAP	55	96	5
TAP	55	192	6
TAP	55	288	7
TAP	56	0	0
TAP	56	96	1
TAP	56	192	0
BRK	56	288	1
BRK	56	288	6
TAP	57	0	7
TAP	57	96	6
TAP	57	192	5
TAP	57	288	4
TAP	58	0	3
TAP	58	96	2
TAP	58	192	1
BRK	58	288	0
BRK	58	288	7
TAP	59	0	1
TAP	59	96	4
TAP	59	192	6
TAP	59	288	2
TAP	60	0	2
TAP	60	0	5
TAP	60	144	1
TAP	60	144	6
TAP	60	288	0
TAP	60	288	7
HLD	61	0	6	96
TAP	61	96	5
TAP	61	192	7
TAP	61	288	0
HLD	62	0	1	96
TAP	62	96	2
TAP	62	192	1
TAP	62	288	0
HLD	63	0	7	98
TAP	63	96	6
TAP	63	192	7
TAP	63	288	6
TAP	64	0	5
TAP	64	96	4
TAP	64	192	3
BRK	64	288	3
BRK	64	288	4
HLD	65	0	3	96
TAP	65	96	2
TAP	65	192	1
TAP	65	288	0
TAP	66	0	7
TAP	66	96	6
TAP	66	192	7
BRK	66	288	0
BRK	66	288	7
HLD	67	0	1	96
TAP	67	96	2
TAP	67	192	3
TAP	67	288	2
TAP	68	0	0
TAP	68	0	1
TAP	68	144	0
TAP	68	144	7
TAP	68	288	6
TAP	68	288	7
HLD	69	0	6	384
TAP	69	96	7
TAP	69	288	7
HLD	70	0	0	192
STR	70	288	1
SI_	70	288	1	96	192	5

T_REC_TAP	173
T_REC_BRK	19
T_REC_XTP	0
T_REC_HLD	29
T_REC_XHO	0
T_REC_STR	5
T_REC_BST	0
T_REC_XST	0
T_REC_TTP	0
T_REC_THO	0
T_REC_SLD	5
T_REC_ALL	231
T_NUM_TAP	178
T_NUM_BRK	19
T_NUM_HLD	29
T_NUM_SLD	5
T_NUM_ALL	231
T_JUDGE_TAP	197
T_JUDGE_HLD	199
T_JUDGE_SLD	5
T_JUDGE_ALL	401
TTM_EACHPAIRS	18
TTM_SCR_TAP	89000
TTM_SCR_BRK	49400
TTM_SCR_HLD	29000
TTM_SCR_SLD	7500
TTM_SCR_ALL	174900
TTM_SCR_S	167850
TTM_SCR_SS	173000
TTM_RAT_ACV	10109

