VERSION	0.00.00	1.03.00
FES_MODE	0
BPM_DEF	190.000	190.000	190.000	190.000
MET_DEF	4	4
RESOLUTION	384
CLK_DEF	384
COMPATIBLE_CODE	MA2

BPM	0	0	190.000
MET	0	0	4	4

TAP	3	0	7
TAP	3	192	6
TAP	4	0	5
TAP	4	192	4
TAP	5	0	3
TAP	5	192	2
TAP	6	0	1
TAP	6	192	0
TAP	7	0	1
TAP	7	192	2
TAP	8	0	3
TAP	8	192	4
HLD	9	0	5	192
HLD	10	0	6	192
TAP	11	0	7
TAP	11	192	7
TAP	12	0	0
TAP	12	96	0
BRK	12	192	0
TAP	13	0	1
TAP	13	192	0
TAP	14	0	1
TAP	15	0	6
TAP	15	192	7
TAP	16	0	6
TAP	17	0	1
TAP	17	192	2
TAP	18	0	3
TAP	19	0	6
TAP	19	192	5
TAP	20	0	4
TAP	21	0	1
TAP	21	0	6
TAP	21	192	6
TAP	22	0	7
TAP	22	192	0
TAP	23	0	0
TAP	23	0	1
TAP	23	192	2
TAP	24	0	3
TAP	24	192	4
TAP	25	0	2
TAP	25	0	5
TAP	25	192	5
TAP	26	0	4
TAP	26	192	5
HLD	27	0	6	192
HLD	27	0	7	192
TAP	28	0	7
TAP	28	192	0
TAP	29	0	1
TAP	29	0	6
TAP	29	192	1
TAP	30	0	0
TAP	30	192	7
TAP	31	0	6
TAP	31	0	7
TAP	31	192	5
TAP	32	0	4
TAP	32	192	3
TAP	33	0	2
TAP	33	0	5
TAP	33	192	4
TAP	34	0	3
TAP	34	192	2
TAP	35	0	0
TAP	35	0	1
TAP	35	192	7
TAP	36	0	0
TAP	36	0	1
TAP	36	192	1
TAP	36	288	1
BRK	37	0	1
TAP	37	192	7
TAP	38	0	6
TAP	38	192	6
TAP	38	288	6
STR	39	0	6
SI_	39	0	6	96	192	1
TAP	40	192	5
TAP	40	288	5
STR	41	0	5
SI_	41	0	5	96	192	2
TAP	42	192	6
TAP	42	288	6
STR	43	0	6
SI_	43	0	6	96	192	1
TAP	44	0	1
TAP	44	192	1
TAP	44	288	1
HLD	45	0	1	192
TAP	46	0	2
TAP	46	192	1
TAP	46	286	1
STR	47	0	1
SI_	47	0	1	96	192	6
TAP	48	192	2
TAP	48	288	2
STR	49	0	2
SI_	49	0	2	96	192	5
TAP	50	192	1
TAP	50	288	1
STR	51	0	1
SI_	51	0	1	96	192	6
TAP	52	0	6
TAP	52	192	6
TAP	52	288	6
HLD	53	0	6	192
HLD	53	0	7	192
TAP	54	0	0
TAP	54	0	1
TAP	54	192	2
TAP	54	288	1
STR	55	0	0
SI_	55	0	0	96	192	3
TAP	56	192	5
TAP	56	288	6
STR	57	0	7
SI_	57	0	7	96	192	4
TAP	58	192	2
TAP	58	288	1
STR	59	0	0
SI_	59	0	0	96	192	3
TAP	60	0	4
TAP	60	192	4
TAP	60	288	4
TAP	60	288	5
HLD	61	0	4	192
HLD	61	0	5	192
TAP	62	0	2
TAP	62	0	3
TAP	62	192	0
TAP	62	288	7
STR	63	0	6
SI_	63	0	6	96	192	3
TAP	64	192	7
TAP	64	288	0
STR	65	0	1
SI_	65	0	1	96	192	4
TAP	66	192	1
TAP	66	288	0
STR	67	0	7
SI_	67	0	7	96	192	2
TAP	68	0	5
TAP	68	192	5
TAP	69	0	6
TAP	69	192	6
TAP	70	0	7
TAP	70	192	1
TAP	70	192	6
HLD	71	0	0	672
HLD	71	0	7	672

T_REC_TAP	115
T_REC_BRK	2
T_REC_XTP	0
T_REC_HLD	11
T_REC_XHO	0
T_REC_STR	12
T_REC_BST	0
T_REC_XST	0
T_REC_TTP	0
T_REC_THO	0
T_REC_SLD	12
T_REC_ALL	152
T_NUM_TAP	127
T_NUM_BRK	2
T_NUM_HLD	11
T_NUM_SLD	12
T_NUM_ALL	152
T_JUDGE_TAP	129
T_JUDGE_HLD	64
T_JUDGE_SLD	12
T_JUDGE_ALL	205
TTM_EACHPAIRS	16
TTM_SCR_TAP	63500
TTM_SCR_BRK	5200
TTM_SCR_HLD	11000
TTM_SCR_SLD	18000
TTM_SCR_ALL	97700
TTM_SCR_S	94600
TTM_SCR_SS	97500
TTM_RAT_ACV	10020

