VERSION	0.00.00	1.03.00
FES_MODE	0
BPM_DEF	160.000	160.000	160.000	160.000
MET_DEF	4	4
RESOLUTION	384
CLK_DEF	384
COMPATIBLE_CODE	MA2

BPM	0	0	160.000
MET	0	0	4	4

TAP	3	0	0
TAP	3	48	6
TAP	3	96	2
TAP	3	144	4
HLD	3	168	3	120
TAP	3	288	4
TAP	3	336	5
TAP	4	0	1
TAP	4	48	0
TAP	4	96	7
TAP	4	144	6
TAP	4	192	5
TAP	4	240	4
TAP	4	288	3
TAP	4	336	2
TAP	5	0	7
TAP	5	48	1
TAP	5	96	5
TAP	5	144	3
HLD	5	168	4	120
TAP	5	288	3
TAP	5	336	2
TAP	6	0	1
TAP	6	0	3
TAP	6	48	0
TAP	6	48	1
TAP	6	120	7
TAP	6	144	6
TAP	6	192	0
TAP	6	240	1
TAP	6	288	2
TAP	7	0	0
TAP	7	48	6
TAP	7	96	2
TAP	7	144	4
HLD	7	168	3	120
TAP	7	288	4
TAP	7	336	5
TAP	8	0	1
TAP	8	48	0
TAP	8	96	7
TAP	8	144	6
TAP	8	192	5
TAP	8	240	4
TAP	8	288	3
TAP	8	336	2
TAP	9	0	7
TAP	9	48	1
TAP	9	96	5
TAP	9	144	3
HLD	9	168	4	120
TAP	9	288	3
TAP	9	336	2
HLD	10	0	6	48
TAP	10	48	5
TAP	10	120	0
TAP	10	144	7
TAP	10	192	1
TAP	10	192	5
TAP	10	288	3
TAP	10	288	7
TAP	11	48	0
TAP	11	96	1
TAP	11	144	0
TAP	11	240	4
TAP	11	288	5
TAP	11	336	4
TAP	12	48	0
STR	12	96	1
SI_	12	96	1	96	96	6
TAP	13	48	3
TAP	13	96	2
TAP	13	144	3
TAP	13	240	7
TAP	13	288	6
TAP	13	336	7
TAP	14	48	3
STR	14	96	2
SI_	14	96	2	96	96	5
TAP	15	48	0
TAP	15	96	1
TAP	15	144	0
TAP	15	240	4
TAP	15	288	5
TAP	15	336	4
TAP	16	48	0
TAP	16	96	1
TAP	16	144	0
HLD	16	192	7	96
TAP	16	288	6
TAP	17	48	3
TAP	17	96	2
TAP	17	144	3
TAP	17	240	4
TAP	17	288	5
TAP	17	336	4
HLD	18	48	3	48
TAP	18	96	2
TAP	18	192	1
TAP	18	192	5
TAP	18	288	3
TAP	18	288	7
TAP	19	48	3
TAP	19	96	2
TAP	19	144	3
HLD	19	192	7	144
TAP	19	240	6
TAP	19	336	0
TAP	20	0	1
TAP	20	48	2
TAP	20	96	3
BRK	20	192	0
BRK	20	192	7
TAP	21	48	0
TAP	21	96	1
TAP	21	144	0
HLD	21	192	4	144
TAP	21	240	5
TAP	21	336	3
TAP	22	0	2
TAP	22	48	1
TAP	22	96	0
BRK	22	192	1
BRK	22	192	6
TAP	23	48	0
TAP	23	96	1
TAP	23	144	0
TAP	23	240	7
TAP	23	288	6
TAP	23	336	7
TAP	24	48	3
TAP	24	96	2
TAP	24	144	3
TAP	24	192	0
TAP	24	192	4
TAP	24	288	2
TAP	24	288	6
TAP	25	48	0
TAP	25	96	1
TAP	25	144	0
TAP	25	240	7
TAP	25	288	6
TAP	25	336	5
TAP	26	0	4
TAP	26	48	3
TAP	26	96	2
TAP	26	192	0
TAP	26	192	5
TAP	26	288	3
TAP	26	288	6
HLD	27	0	1	96
TAP	27	48	2
TAP	27	96	3
TAP	27	144	2
HLD	27	192	4	96
TAP	27	240	3
TAP	27	336	3
HLD	28	0	6	96
TAP	28	48	5
TAP	28	96	4
TAP	28	144	5
HLD	28	192	3	96
TAP	28	240	4
TAP	28	336	4
TAP	29	0	5
TAP	29	48	6
TAP	29	96	0
BRK	29	96	7
TAP	29	192	1
TAP	29	192	2
TAP	29	240	3
BRK	29	288	1
TAP	29	288	2
TAP	30	0	5
TAP	30	0	6
TAP	30	48	7
TAP	30	96	5
BRK	30	96	6
TAP	30	192	0
TAP	30	192	7
TAP	30	240	1
STR	30	288	0
SCL	30	288	0	96	96	5
BRK	30	288	7
TAP	31	96	4
TAP	31	192	3
STR	31	288	2
SCR	31	288	2	96	96	5
TAP	32	96	6
TAP	32	192	7
TAP	32	288	0
TAP	33	0	2
TAP	33	0	5
TAP	33	144	1
TAP	33	144	7
TAP	33	192	0
TAP	33	192	6
TAP	33	336	3
TAP	33	336	4
TAP	34	48	2
TAP	34	48	6
TAP	34	96	1
TAP	34	96	5
TAP	34	144	0
TAP	34	144	4
TAP	34	192	3
TAP	34	192	7
TAP	35	0	0
HLD	35	0	6	96
TAP	35	96	4
HLD	35	192	1	96
TAP	35	192	7
TAP	35	288	3
TAP	36	0	4
TAP	36	0	7
HLD	36	48	1	48
TAP	36	96	5
BRK	36	192	0
TAP	36	192	6
STR	36	288	1
SI_	36	288	1	96	48	4
STR	37	0	5
SI_	37	0	5	96	48	0
STR	37	96	7
SI_	37	96	7	96	48	2
STR	37	192	3
SI_	37	192	3	96	48	6
HLD	38	0	2	144
TAP	38	96	3
TAP	38	144	3
TAP	38	192	1
TAP	38	240	0
TAP	38	288	1
TAP	38	336	0
HLD	39	0	7	96
TAP	39	48	6
TAP	39	96	5
TAP	39	144	5
TAP	39	192	4
TAP	39	240	5
HLD	39	336	3	144
TAP	40	0	2
TAP	40	48	1
TAP	40	96	2
HLD	40	192	0	96
HLD	40	192	7	96
TAP	41	0	5
TAP	41	0	6
TAP	41	96	3
TAP	41	96	4
TAP	41	192	1
TAP	41	192	2
TAP	41	288	7
TAP	41	336	0
TAP	42	48	1
TAP	42	144	2
TAP	42	192	1
BRK	42	192	2
TAP	42	288	0
BRK	42	288	7
TAP	43	0	0
HLD	43	0	6	96
TAP	43	96	4
HLD	43	192	1	96
TAP	43	192	7
TAP	43	288	3
TAP	44	0	4
TAP	44	0	7
HLD	44	48	1	48
TAP	44	96	5
BRK	44	192	0
TAP	44	192	6
STR	44	288	1
SI_	44	288	1	96	48	4
STR	45	0	5
SI_	45	0	5	96	48	0
STR	45	96	7
SI_	45	96	7	96	48	2
STR	45	192	3
SI_	45	192	3	96	48	6
HLD	46	0	2	144
TAP	46	96	3
TAP	46	144	3
TAP	46	192	1
TAP	46	240	0
TAP	46	288	1
TAP	46	336	0
HLD	47	0	7	96
TAP	47	48	6
TAP	47	96	5
TAP	47	144	5
TAP	47	192	4
TAP	47	240	5
HLD	47	336	3	144
TAP	48	0	2
TAP	48	48	1
TAP	48	96	2
HLD	48	192	0	96
HLD	48	192	7	96
TAP	49	0	5
TAP	49	0	6
TAP	49	96	3
TAP	49	96	4
TAP	49	192	1
TAP	49	192	2
TAP	49	288	7
TAP	49	336	0
TAP	49	336	7
TAP	50	48	2
TAP	50	48	3
TAP	50	96	4
TAP	50	96	5
TAP	50	144	2
TAP	50	144	3
TAP	50	192	4
TAP	50	192	5
TAP	50	288	0
TAP	50	288	7
TAP	51	0	0
TAP	51	48	6
TAP	51	96	2
TAP	51	144	4
HLD	51	168	3	120
TAP	51	288	4
TAP	51	336	5
TAP	52	0	1
TAP	52	48	0
TAP	52	96	7
TAP	52	144	6
TAP	52	192	5
TAP	52	240	4
TAP	52	288	3
TAP	52	336	2
TAP	53	0	7
TAP	53	48	1
TAP	53	96	5
TAP	53	144	3
HLD	53	168	4	120
TAP	53	288	3
TAP	53	336	2
TAP	54	0	1
TAP	54	0	3
TAP	54	48	0
TAP	54	48	1
TAP	54	120	7
TAP	54	144	6
TAP	54	192	0
TAP	54	240	1
TAP	54	288	2
TAP	55	0	0
TAP	55	48	6
TAP	55	96	2
TAP	55	144	4
HLD	55	168	3	120
TAP	55	288	4
TAP	55	336	5
TAP	56	0	1
TAP	56	48	0
TAP	56	96	7
TAP	56	144	6
TAP	56	192	5
TAP	56	240	4
TAP	56	288	3
TAP	56	336	2
TAP	57	0	7
TAP	57	48	1
TAP	57	96	5
TAP	57	144	3
HLD	57	168	4	120
TAP	57	288	3
TAP	57	336	2
HLD	58	0	6	48
BRK	58	48	5
TAP	58	120	0
BRK	58	144	7
TAP	58	192	1
TAP	58	192	5
STR	58	288	2
SI_	58	288	2	96	192	5
STR	58	288	6
SI_	58	288	6	96	192	1

T_REC_TAP	305
T_REC_BRK	14
T_REC_XTP	0
T_REC_HLD	34
T_REC_XHO	0
T_REC_STR	14
T_REC_BST	0
T_REC_XST	0
T_REC_TTP	0
T_REC_THO	0
T_REC_SLD	14
T_REC_ALL	381
T_NUM_TAP	319
T_NUM_BRK	14
T_NUM_HLD	34
T_NUM_SLD	14
T_NUM_ALL	381
T_JUDGE_TAP	333
T_JUDGE_HLD	77
T_JUDGE_SLD	14
T_JUDGE_ALL	424
TTM_EACHPAIRS	55
TTM_SCR_TAP	159500
TTM_SCR_BRK	36400
TTM_SCR_HLD	34000
TTM_SCR_SLD	21000
TTM_SCR_ALL	250900
TTM_SCR_S	242050
TTM_SCR_SS	249500
TTM_RAT_ACV	10056

