VERSION	0.00.00	1.03.00
FES_MODE	0
BPM_DEF	160.000	160.000	160.000	160.000
MET_DEF	4	4
RESOLUTION	384
CLK_DEF	384
COMPATIBLE_CODE	MA2

BPM	0	0	160.000
MET	0	0	4	4

HLD	3	0	0	96
TAP	3	96	1
HLD	3	192	7	96
TAP	3	288	6
HLD	4	0	2	96
TAP	4	96	1
HLD	4	192	5	96
TAP	4	288	6
HLD	5	0	7	96
TAP	5	96	6
HLD	5	192	0	96
TAP	5	288	1
HLD	6	0	6	96
TAP	6	96	5
TAP	6	192	0
TAP	6	192	7
TAP	6	288	1
TAP	6	288	6
HLD	7	0	7	96
TAP	7	96	6
HLD	7	192	0	96
TAP	7	288	1
HLD	8	0	0	96
HLD	8	96	7	96
HLD	8	192	6	96
TAP	8	288	5
HLD	9	0	0	96
TAP	9	96	1
HLD	9	192	7	96
TAP	9	288	6
HLD	10	0	2	96
TAP	10	96	1
TAP	10	192	0
TAP	10	192	6
TAP	10	288	1
TAP	10	288	7
TAP	11	96	1
TAP	11	192	2
STR	11	288	1
SI_	11	288	1	96	192	6
TAP	13	96	6
TAP	13	192	5
STR	13	288	6
SI_	13	288	6	96	192	1
TAP	15	0	1
HLD	15	96	2	192
TAP	15	192	1
TAP	15	288	0
TAP	16	0	6
HLD	16	96	5	192
TAP	16	192	6
TAP	16	288	7
TAP	17	0	4
HLD	17	96	1	96
TAP	17	192	3
HLD	17	288	6	96
TAP	18	0	4
TAP	18	96	3
TAP	18	192	6
TAP	18	192	7
TAP	18	288	0
TAP	18	288	1
HLD	19	96	7	288
TAP	19	192	6
TAP	19	288	5
HLD	20	0	4	288
TAP	20	96	0
TAP	20	192	0
TAP	20	288	0
HLD	21	96	0	288
TAP	21	192	1
TAP	21	288	2
HLD	22	0	3	288
TAP	22	96	7
TAP	22	192	7
TAP	22	288	7
TAP	23	96	0
TAP	23	96	1
TAP	23	192	1
TAP	23	192	2
TAP	23	288	2
TAP	23	288	3
TAP	24	96	6
TAP	24	96	7
TAP	24	192	5
TAP	24	192	6
TAP	24	288	4
TAP	24	288	5
TAP	25	96	0
TAP	25	288	4
TAP	26	96	2
TAP	26	192	0
TAP	26	192	4
TAP	26	288	2
TAP	26	288	6
HLD	27	0	0	96
HLD	27	96	1	96
TAP	27	192	2
BRK	27	288	0
HLD	28	0	7	96
HLD	28	96	6	96
TAP	28	192	5
BRK	28	288	7
TAP	29	0	5
TAP	29	48	3
TAP	29	96	3
TAP	29	192	2
TAP	29	240	4
TAP	29	288	4
TAP	30	0	5
TAP	30	0	6
TAP	30	96	1
TAP	30	96	2
STR	30	192	0
SI_	30	192	0	96	96	3
TAP	31	96	1
TAP	31	192	2
TAP	31	288	5
TAP	32	0	0
TAP	32	0	6
TAP	32	96	1
TAP	32	192	2
TAP	32	288	3
TAP	33	0	1
TAP	33	0	6
TAP	33	144	0
TAP	33	144	7
TAP	33	192	1
TAP	33	192	6
TAP	33	336	7
TAP	34	48	3
TAP	34	96	5
TAP	34	144	1
BRK	34	192	1
TAP	35	0	1
TAP	35	0	6
TAP	35	96	0
TAP	35	96	7
TAP	35	192	1
TAP	35	192	6
TAP	35	288	0
TAP	35	288	7
TAP	36	0	6
TAP	36	0	7
TAP	36	96	1
TAP	36	96	5
BRK	36	192	0
TAP	36	192	6
TAP	37	0	0
TAP	37	96	5
TAP	37	192	2
TAP	37	288	7
HLD	38	0	0	96
TAP	38	96	7
HLD	38	192	6	96
TAP	38	288	7
TAP	38	336	7
HLD	39	96	0	192
TAP	39	192	1
TAP	39	288	2
HLD	40	96	1	192
TAP	40	192	0
TAP	40	288	0
TAP	41	0	6
TAP	41	0	7
TAP	41	96	5
TAP	41	96	6
TAP	41	192	4
TAP	41	192	5
TAP	41	288	3
TAP	41	288	4
TAP	42	0	4
TAP	42	0	5
TAP	42	96	5
TAP	42	96	6
TAP	42	192	0
TAP	42	192	7
TAP	42	288	2
TAP	42	288	5
TAP	43	0	1
TAP	43	0	6
TAP	43	96	0
TAP	43	96	7
TAP	43	192	1
TAP	43	192	6
TAP	43	288	0
TAP	43	288	7
TAP	44	0	6
TAP	44	0	7
TAP	44	96	1
TAP	44	96	5
BRK	44	192	0
TAP	44	192	6
TAP	45	0	7
TAP	45	96	2
TAP	45	192	5
TAP	45	288	0
HLD	46	0	7	96
TAP	46	96	0
HLD	46	192	1	96
TAP	46	288	0
TAP	46	336	0
HLD	47	96	7	192
TAP	47	192	6
TAP	47	288	5
HLD	48	96	6	192
TAP	48	192	7
TAP	48	288	7
TAP	49	0	0
TAP	49	0	1
TAP	49	96	1
TAP	49	96	2
TAP	49	192	2
TAP	49	192	3
TAP	49	288	3
TAP	49	288	4
TAP	49	336	0
TAP	50	48	4
TAP	50	96	2
TAP	50	144	6
STR	50	192	6
SI_	50	192	6	96	48	1
HLD	51	0	7	96
TAP	51	96	6
HLD	51	192	0	96
TAP	51	288	1
HLD	52	0	5	96
TAP	52	96	6
HLD	52	192	2	96
TAP	52	288	1
HLD	53	0	0	96
TAP	53	96	1
HLD	53	192	7	96
TAP	53	288	6
HLD	54	0	1	96
TAP	54	96	2
TAP	54	192	0
TAP	54	192	7
TAP	54	288	1
TAP	54	288	6
HLD	55	0	0	96
TAP	55	96	1
HLD	55	192	7	96
TAP	55	288	6
HLD	56	0	7	96
HLD	56	96	0	96
HLD	56	192	1	96
TAP	56	288	2
HLD	57	0	7	96
TAP	57	96	6
HLD	57	192	0	96
TAP	57	288	1
HLD	58	0	2	96
TAP	58	96	1
TAP	58	192	0
TAP	58	192	6
STR	58	288	1
SI_	58	288	1	96	192	5
TAP	58	288	7
BRK	60	288	0

T_REC_TAP	194
T_REC_BRK	6
T_REC_XTP	0
T_REC_HLD	50
T_REC_XHO	0
T_REC_STR	5
T_REC_BST	0
T_REC_XST	0
T_REC_TTP	0
T_REC_THO	0
T_REC_SLD	5
T_REC_ALL	260
T_NUM_TAP	199
T_NUM_BRK	6
T_NUM_HLD	50
T_NUM_SLD	5
T_NUM_ALL	260
T_JUDGE_TAP	205
T_JUDGE_HLD	128
T_JUDGE_SLD	5
T_JUDGE_ALL	338
TTM_EACHPAIRS	50
TTM_SCR_TAP	99500
TTM_SCR_BRK	15600
TTM_SCR_HLD	50000
TTM_SCR_SLD	7500
TTM_SCR_ALL	172600
TTM_SCR_S	166850
TTM_SCR_SS	172000
TTM_RAT_ACV	10034

