VERSION	0.00.00	1.03.00
FES_MODE	0
BPM_DEF	160.000	160.000	160.000	160.000
MET_DEF	4	4
RESOLUTION	384
CLK_DEF	384
COMPATIBLE_CODE	MA2

BPM	0	0	160.000
MET	0	0	4	4

TAP	3	0	0
TAP	3	96	1
TAP	3	192	0
TAP	3	288	1
TAP	4	0	2
TAP	4	96	3
TAP	4	192	4
TAP	4	288	2
TAP	4	288	5
TAP	5	0	6
TAP	5	96	5
TAP	5	192	6
TAP	5	288	5
TAP	6	0	4
TAP	6	96	3
TAP	6	192	2
TAP	6	288	1
TAP	6	288	6
TAP	7	0	7
TAP	7	96	6
TAP	7	192	7
TAP	7	288	6
TAP	8	0	5
TAP	8	96	4
TAP	8	192	3
TAP	8	288	2
TAP	8	288	5
TAP	9	0	1
TAP	9	96	2
TAP	9	192	1
TAP	9	288	2
TAP	10	0	3
TAP	10	96	4
TAP	10	192	2
TAP	10	192	5
BRK	10	288	1
BRK	10	288	6
TAP	11	96	7
TAP	11	192	6
TAP	11	288	7
TAP	12	96	0
TAP	12	192	1
TAP	12	288	0
TAP	13	96	4
TAP	13	192	5
TAP	13	288	4
TAP	14	96	3
TAP	14	192	2
TAP	14	288	3
TAP	15	96	0
TAP	15	192	1
TAP	15	288	0
TAP	16	96	7
TAP	16	192	6
TAP	16	288	7
TAP	17	96	6
TAP	17	192	5
TAP	17	288	4
TAP	18	192	3
TAP	18	192	4
TAP	18	288	2
TAP	18	288	5
TAP	19	96	7
TAP	19	192	6
TAP	19	192	7
TAP	19	288	7
TAP	20	0	1
TAP	20	96	0
TAP	20	192	0
TAP	20	192	1
TAP	20	288	0
TAP	21	0	5
TAP	21	96	4
TAP	21	192	4
TAP	21	192	5
TAP	21	288	4
TAP	22	0	2
TAP	22	96	3
TAP	22	192	2
TAP	22	192	3
TAP	22	288	3
TAP	23	96	2
TAP	23	192	1
TAP	23	288	0
TAP	24	96	7
TAP	24	192	6
TAP	24	288	6
TAP	25	96	5
TAP	25	288	6
TAP	26	96	7
TAP	26	192	0
TAP	26	192	6
TAP	26	288	1
TAP	26	288	5
TAP	27	0	1
TAP	27	96	0
TAP	27	192	1
TAP	27	288	0
TAP	27	288	7
TAP	28	0	6
TAP	28	96	7
TAP	28	192	6
TAP	28	288	0
TAP	28	288	7
HLD	29	0	2	96
TAP	29	48	1
BRK	29	96	1
HLD	29	192	1	95
TAP	29	240	0
BRK	29	288	0
TAP	30	0	6
TAP	30	0	7
TAP	30	96	5
TAP	30	96	6
TAP	30	192	4
TAP	30	192	5
TAP	30	288	3
TAP	30	288	4
TAP	31	0	2
TAP	31	96	1
TAP	31	192	0
TAP	31	288	7
TAP	32	0	0
TAP	32	96	1
TAP	32	192	2
TAP	32	288	3
TAP	33	0	2
TAP	33	0	5
TAP	33	144	1
TAP	33	144	6
BRK	33	192	2
TAP	33	192	5
TAP	33	336	2
TAP	34	48	1
TAP	34	144	0
STR	34	192	3
SI_	34	192	3	96	192	6
TAP	35	96	0
TAP	35	192	1
TAP	35	288	0
TAP	36	0	6
TAP	36	0	7
TAP	36	96	0
TAP	36	96	1
TAP	36	192	6
TAP	36	192	7
TAP	37	0	0
TAP	37	96	1
TAP	37	192	2
TAP	37	288	1
HLD	38	0	0	96
TAP	38	96	7
HLD	38	192	6	96
TAP	38	288	7
TAP	38	336	7
TAP	39	96	0
TAP	39	192	1
TAP	39	288	2
TAP	40	96	1
TAP	40	192	0
TAP	40	288	0
TAP	41	0	7
TAP	41	96	6
TAP	41	192	5
TAP	41	288	4
TAP	42	0	5
TAP	42	96	6
TAP	42	192	0
TAP	42	192	7
TAP	42	288	1
BRK	42	288	6
TAP	43	0	6
TAP	43	96	7
TAP	43	192	6
TAP	43	288	7
TAP	44	0	0
TAP	44	0	1
TAP	44	96	6
TAP	44	96	7
TAP	44	192	0
TAP	44	192	1
TAP	45	0	7
TAP	45	96	6
TAP	45	192	5
TAP	45	288	6
HLD	46	0	7	96
TAP	46	96	0
HLD	46	192	1	96
TAP	46	288	0
TAP	46	336	0
TAP	47	96	7
TAP	47	192	6
TAP	47	288	5
TAP	48	96	6
TAP	48	192	7
TAP	48	288	7
TAP	49	0	0
TAP	49	96	1
TAP	49	192	2
TAP	49	288	1
TAP	49	336	1
TAP	50	48	0
TAP	50	96	1
TAP	50	144	0
STR	50	192	1
SCL	50	192	1	96	192	6
TAP	51	96	1
TAP	51	192	2
TAP	51	288	1
TAP	52	96	6
TAP	52	288	6
TAP	53	96	5
TAP	53	192	6
TAP	53	288	5
TAP	54	96	4
TAP	54	192	3
TAP	54	288	2
TAP	55	0	1
TAP	55	96	0
TAP	55	192	1
TAP	55	288	0
TAP	56	96	7
TAP	56	288	7
TAP	57	96	6
TAP	57	192	5
TAP	57	288	6
HLD	58	96	1	192
STR	58	288	0
SI_	58	288	0	96	192	4
BRK	60	288	0

T_REC_TAP	210
T_REC_BRK	7
T_REC_XTP	0
T_REC_HLD	7
T_REC_XHO	0
T_REC_STR	3
T_REC_BST	0
T_REC_XST	0
T_REC_TTP	0
T_REC_THO	0
T_REC_SLD	3
T_REC_ALL	230
T_NUM_TAP	213
T_NUM_BRK	7
T_NUM_HLD	7
T_NUM_SLD	3
T_NUM_ALL	230
T_JUDGE_TAP	220
T_JUDGE_HLD	16
T_JUDGE_SLD	3
T_JUDGE_ALL	239
TTM_EACHPAIRS	30
TTM_SCR_TAP	106500
TTM_SCR_BRK	18200
TTM_SCR_HLD	7000
TTM_SCR_SLD	4500
TTM_SCR_ALL	136200
TTM_SCR_S	131450
TTM_SCR_SS	135500
TTM_RAT_ACV	10051

