VERSION	0.00.00	1.03.00
FES_MODE	0
BPM_DEF	160.000	160.000	160.000	160.000
MET_DEF	4	4
RESOLUTION	384
CLK_DEF	384
COMPATIBLE_CODE	MA2

BPM	0	0	160.000
MET	0	0	4	4

TAP	3	0	2
TAP	3	192	5
TAP	4	0	6
TAP	4	192	1
TAP	5	0	5
TAP	5	192	2
TAP	6	0	5
TAP	7	0	0
TAP	7	0	7
TAP	7	192	7
TAP	7	288	2
TAP	8	0	5
TAP	8	288	1
TAP	8	288	6
TAP	9	0	5
TAP	9	192	0
TAP	11	0	3
TAP	11	192	4
TAP	12	0	3
TAP	12	192	3
TAP	13	0	7
TAP	13	192	0
TAP	14	0	1
TAP	14	192	1
TAP	15	0	2
TAP	15	192	5
TAP	16	192	3
TAP	16	192	4
TAP	18	192	2
TAP	18	288	5
TAP	19	0	3
TAP	19	192	4
TAP	20	0	3
TAP	20	192	3
TAP	21	0	7
TAP	21	192	0
TAP	22	0	1
TAP	22	192	1
TAP	23	0	2
TAP	23	192	5
TAP	25	0	2
TAP	25	192	5
TAP	27	0	4
TAP	27	288	0
TAP	28	0	3
TAP	28	288	7
TAP	29	96	4
TAP	29	288	0
TAP	30	96	6
TAP	30	192	0
STR	30	288	3
SI_	30	288	3	96	288	0
TAP	33	0	1
TAP	33	192	0
TAP	34	96	7
TAP	35	0	1
TAP	35	0	6
TAP	35	192	1
TAP	35	192	6
BRK	36	192	1
TAP	37	0	0
TAP	37	192	0
STR	38	0	0
SI_	38	0	0	96	192	3
STR	38	0	7
SI_	38	0	7	96	192	4
TAP	39	96	1
TAP	39	96	6
TAP	39	288	6
TAP	41	0	6
TAP	41	96	1
TAP	41	192	5
TAP	41	288	2
TAP	42	192	2
TAP	42	288	5
TAP	43	0	1
TAP	43	0	6
TAP	43	192	1
TAP	43	192	6
BRK	44	192	1
TAP	45	0	0
TAP	45	192	0
STR	46	0	0
SI_	46	0	0	96	192	3
STR	46	0	7
SI_	46	0	7	96	192	4
TAP	47	96	1
TAP	47	96	6
TAP	47	288	6
STR	49	0	6
SI_	49	0	6	96	192	1
TAP	51	0	0
TAP	51	0	7
TAP	51	192	7
TAP	51	288	2
TAP	52	96	5
TAP	52	288	1
TAP	52	288	6
TAP	53	96	5
TAP	53	288	0
TAP	54	192	5
TAP	54	288	2
TAP	55	0	7
TAP	55	96	5
TAP	55	192	0
TAP	55	288	2
TAP	56	192	2
TAP	56	288	5
TAP	57	96	5
TAP	57	192	2
TAP	57	288	7
TAP	58	96	7
STR	59	0	7
SI_	59	0	7	96	192	4

T_REC_TAP	98
T_REC_BRK	2
T_REC_XTP	0
T_REC_HLD	0
T_REC_XHO	0
T_REC_STR	7
T_REC_BST	0
T_REC_XST	0
T_REC_TTP	0
T_REC_THO	0
T_REC_SLD	7
T_REC_ALL	114
T_NUM_TAP	105
T_NUM_BRK	2
T_NUM_HLD	0
T_NUM_SLD	7
T_NUM_ALL	114
T_JUDGE_TAP	107
T_JUDGE_HLD	0
T_JUDGE_SLD	7
T_JUDGE_ALL	114
TTM_EACHPAIRS	13
TTM_SCR_TAP	52500
TTM_SCR_BRK	5200
TTM_SCR_HLD	0
TTM_SCR_SLD	10500
TTM_SCR_ALL	68200
TTM_SCR_S	66000
TTM_SCR_SS	68000
TTM_RAT_ACV	10029

