VERSION	0.00.00	1.03.00
FES_MODE	0
BPM_DEF	127.000	127.000	127.000	127.000
MET_DEF	4	4
RESOLUTION	384
CLK_DEF	384
COMPATIBLE_CODE	MA2

BPM	0	0	127.000
MET	0	0	4	4

HLD	2	0	6	384
TAP	2	96	0
TAP	2	192	4
TAP	2	288	2
HLD	3	0	0	384
TAP	3	96	2
TAP	3	192	6
TAP	3	288	1
HLD	4	0	7	384
TAP	4	96	5
TAP	4	192	1
TAP	4	288	6
TAP	5	0	0
TAP	5	96	1
TAP	5	96	2
TAP	5	192	0
TAP	5	192	7
TAP	5	288	5
TAP	5	288	6
TAP	6	0	1
STR	6	96	2
SI_	6	96	2	96	96	7
TAP	6	192	0
TAP	6	240	0
TAP	6	288	0
TAP	7	0	6
STR	7	96	5
SI_	7	96	5	96	96	0
TAP	7	192	7
TAP	7	240	7
TAP	7	288	7
TAP	8	0	1
STR	8	96	2
SI_	8	96	2	96	96	7
TAP	8	192	0
TAP	8	240	0
TAP	8	288	0
TAP	9	0	0
TAP	9	0	5
TAP	9	96	3
TAP	9	96	6
TAP	9	192	1
TAP	9	192	4
TAP	9	288	2
TAP	9	288	7
TAP	10	0	1
STR	10	96	2
SI_	10	96	2	96	96	7
TAP	10	192	0
TAP	10	240	0
TAP	10	288	0
TAP	11	0	6
STR	11	96	5
SI_	11	96	5	96	96	0
TAP	11	192	7
TAP	11	240	7
TAP	11	288	7
TAP	12	0	1
STR	12	96	2
SI_	12	96	2	96	96	7
TAP	12	192	0
TAP	12	240	0
TAP	12	288	0
TAP	13	0	3
TAP	13	0	7
TAP	13	96	1
TAP	13	96	5
TAP	13	192	0
TAP	13	192	4
TAP	13	288	2
TAP	13	288	6
HLD	14	0	4	96
TAP	14	0	5
TAP	14	96	3
TAP	14	192	0
TAP	14	192	7
TAP	14	240	6
TAP	14	240	7
TAP	14	288	0
TAP	14	288	1
HLD	15	0	0	96
TAP	15	0	1
TAP	15	96	7
TAP	15	192	3
TAP	15	192	4
TAP	15	240	2
TAP	15	240	3
TAP	15	288	4
TAP	15	288	5
TAP	16	0	2
HLD	16	0	3	96
TAP	16	96	4
TAP	16	192	0
HLD	16	192	7	96
TAP	16	240	5
TAP	16	288	2
TAP	17	0	1
TAP	17	0	6
TAP	17	48	2
TAP	17	72	3
TAP	17	120	5
TAP	17	144	4
TAP	17	288	1
TAP	17	288	6
HLD	18	0	4	96
TAP	18	0	5
TAP	18	96	3
HLD	18	192	0	192
TAP	18	192	7
TAP	18	240	1
TAP	18	288	2
HLD	19	0	7	96
TAP	19	96	6
TAP	19	192	3
HLD	19	192	4	192
TAP	19	240	5
TAP	19	288	6
HLD	20	0	0	96
TAP	20	96	1
TAP	20	192	0
HLD	20	192	7	96
TAP	20	240	6
TAP	20	288	5
TAP	21	0	3
TAP	21	0	4
TAP	21	48	1
TAP	21	72	1
TAP	21	120	6
TAP	21	144	6
BRK	21	240	0
BRK	21	288	0
TAP	22	0	1
TAP	22	48	2
TAP	22	96	1
TAP	22	144	2
TAP	22	168	1
TAP	22	216	3
HLD	22	264	1	96
TAP	23	0	5
TAP	23	48	6
TAP	23	96	5
TAP	23	144	6
TAP	23	168	5
TAP	23	216	7
HLD	23	264	5	96
TAP	24	0	1
TAP	24	48	2
TAP	24	96	1
TAP	24	144	2
TAP	24	168	1
TAP	24	216	3
HLD	24	264	1	96
TAP	25	0	1
TAP	25	0	6
TAP	25	48	4
TAP	25	72	3
HLD	25	120	7	168
HLD	25	168	0	120
TAP	26	0	6
TAP	26	48	5
TAP	26	96	6
TAP	26	144	5
TAP	26	168	6
TAP	26	216	4
HLD	26	264	6	96
TAP	27	0	2
TAP	27	48	1
TAP	27	96	2
TAP	27	144	1
TAP	27	168	2
TAP	27	216	0
HLD	27	264	2	96
TAP	28	0	6
TAP	28	48	5
TAP	28	96	6
TAP	28	144	5
TAP	28	168	6
TAP	28	216	4
HLD	28	264	6	96
TAP	29	0	1
TAP	29	0	6
TAP	29	48	0
TAP	29	72	7
HLD	29	120	3	168
HLD	29	168	4	119
HLD	30	0	7	384
TAP	30	48	6
TAP	30	96	0
TAP	30	192	2
TAP	30	240	3
TAP	30	288	3
HLD	31	0	0	384
TAP	31	48	1
TAP	31	96	7
TAP	31	192	5
TAP	31	240	4
TAP	31	288	4
HLD	32	0	4	384
TAP	32	48	5
TAP	32	96	3
TAP	32	192	1
TAP	32	240	0
TAP	32	288	0
HLD	33	0	3	192
TAP	33	48	2
TAP	33	96	4
TAP	33	192	7
TAP	33	288	1
TAP	33	288	6
STR	34	0	0
SI_	34	0	0	96	48	4
TAP	34	48	7
TAP	34	144	6
STR	34	192	7
SI_	34	192	7	96	48	3
TAP	34	240	0
TAP	34	336	1
STR	35	0	2
SI_	35	0	2	96	48	7
TAP	35	48	3
TAP	35	144	1
STR	35	192	5
SI_	35	192	5	96	48	0
TAP	35	240	4
TAP	35	336	6
STR	36	0	1
SI_	36	0	1	96	48	6
TAP	36	48	1
STR	36	192	5
SI_	36	192	5	96	48	2
TAP	36	240	5
STR	37	0	0
SCR	37	0	0	96	48	3
STR	37	0	4
SCR	37	0	4	96	48	7
STR	37	192	0
SCL	37	192	0	96	48	5
STR	37	192	4
SCL	37	192	4	96	47	1
STR	38	0	5
SI_	38	0	5	96	192	0
TAP	38	192	7
TAP	38	240	7
STR	38	288	6
SI_	38	288	6	96	48	1
STR	39	0	2
SI_	39	0	2	96	192	7
TAP	39	192	0
TAP	39	240	0
STR	39	288	1
SI_	39	288	1	96	48	6
STR	40	0	7
SI_	40	0	7	96	96	2
STR	40	192	5
SI_	40	192	5	96	96	0
STR	41	0	6
SI_	41	0	6	96	96	3
STR	41	192	4
SI_	41	192	4	96	96	1
STR	42	0	6
SI_	42	0	6	96	192	3
TAP	42	192	0
TAP	42	240	0
STR	42	288	1
SI_	42	288	1	96	48	6
STR	43	0	4
SI_	43	0	4	96	192	1
TAP	43	192	7
TAP	43	240	7
STR	43	288	6
SI_	43	288	6	96	48	1
STR	44	0	2
SI_	44	0	2	96	192	7
TAP	44	192	0
TAP	44	240	0
STR	44	288	0
SI_	44	288	0	96	48	3
TAP	45	96	2
TAP	45	96	5
TAP	45	192	3
TAP	45	192	4
TAP	45	288	0
TAP	45	288	7
TAP	46	0	1
TAP	46	0	5
TAP	46	96	3
TAP	46	96	7
TAP	46	192	2
TAP	46	192	6
BRK	46	240	1
BRK	46	288	1
TAP	47	0	0
TAP	47	0	4
TAP	47	96	2
TAP	47	96	6
TAP	47	192	0
TAP	47	192	4

T_REC_TAP	206
T_REC_BRK	4
T_REC_XTP	0
T_REC_HLD	27
T_REC_XHO	0
T_REC_STR	30
T_REC_BST	0
T_REC_XST	0
T_REC_TTP	0
T_REC_THO	0
T_REC_SLD	30
T_REC_ALL	297
T_NUM_TAP	236
T_NUM_BRK	4
T_NUM_HLD	27
T_NUM_SLD	30
T_NUM_ALL	297
T_JUDGE_TAP	240
T_JUDGE_HLD	102
T_JUDGE_SLD	30
T_JUDGE_ALL	372
TTM_EACHPAIRS	42
TTM_SCR_TAP	118000
TTM_SCR_BRK	10400
TTM_SCR_HLD	27000
TTM_SCR_SLD	45000
TTM_SCR_ALL	200400
TTM_SCR_S	194000
TTM_SCR_SS	200000
TTM_RAT_ACV	10020

