VERSION	0.00.00	1.03.00
FES_MODE	0
BPM_DEF	127.000	127.000	127.000	127.000
MET_DEF	4	4
RESOLUTION	384
CLK_DEF	384
COMPATIBLE_CODE	MA2

BPM	0	0	127.000
MET	0	0	4	4

HLD	2	0	4	96
HLD	2	192	3	96
HLD	3	0	4	96
HLD	3	192	3	96
HLD	4	0	5	96
TAP	4	96	3
HLD	4	192	2	96
TAP	4	288	4
TAP	5	0	3
TAP	5	96	4
TAP	5	192	2
TAP	5	192	5
TAP	5	288	2
TAP	5	288	5
TAP	6	0	1
TAP	6	96	6
TAP	6	192	7
TAP	6	240	0
TAP	6	288	1
TAP	6	288	4
TAP	7	0	6
TAP	7	96	1
TAP	7	192	0
TAP	7	240	7
TAP	7	288	3
TAP	7	288	6
TAP	8	0	1
TAP	8	96	6
TAP	8	192	7
TAP	8	240	0
TAP	8	288	1
TAP	8	288	4
TAP	9	0	6
TAP	9	96	1
TAP	9	192	0
TAP	9	240	7
TAP	9	288	3
TAP	9	288	6
TAP	10	0	1
TAP	10	0	5
TAP	10	96	2
TAP	10	96	6
TAP	10	192	7
TAP	10	240	0
TAP	10	288	1
TAP	10	288	4
TAP	11	0	2
TAP	11	0	6
TAP	11	96	1
TAP	11	96	5
TAP	11	192	0
TAP	11	240	7
TAP	11	288	3
TAP	11	288	6
TAP	12	0	1
TAP	12	0	5
TAP	12	96	2
TAP	12	96	6
TAP	12	192	7
TAP	12	240	0
TAP	12	288	1
TAP	12	288	4
TAP	13	0	2
TAP	13	0	6
TAP	13	96	1
TAP	13	96	5
TAP	13	192	0
TAP	13	240	7
TAP	13	288	3
STR	13	288	6
SCL	13	288	6	96	96	3
TAP	14	192	2
TAP	14	288	2
TAP	15	0	4
HLD	15	96	1	192
TAP	15	192	3
TAP	15	288	6
TAP	16	0	0
TAP	16	0	7
TAP	16	96	1
TAP	16	96	5
TAP	16	192	2
TAP	16	192	4
STR	16	288	1
SCL	16	288	1	96	192	6
STR	16	288	5
SCL	16	288	5	96	192	2
TAP	17	288	1
TAP	17	288	5
HLD	18	0	5	96
HLD	18	0	7	96
TAP	18	192	2
TAP	18	192	4
TAP	18	240	3
TAP	18	288	2
TAP	18	288	4
HLD	19	0	0	96
HLD	19	0	2	96
TAP	19	192	3
TAP	19	192	5
TAP	19	240	4
TAP	19	288	3
TAP	19	288	5
TAP	20	0	2
TAP	20	0	4
TAP	20	48	4
TAP	20	96	1
TAP	20	192	3
TAP	20	192	5
TAP	20	240	3
TAP	20	288	6
TAP	21	0	3
TAP	21	0	5
TAP	21	48	5
TAP	21	96	2
TAP	21	192	2
TAP	21	192	4
TAP	21	240	2
TAP	21	288	5
HLD	22	0	0	96
TAP	22	0	3
TAP	22	192	0
TAP	22	192	3
TAP	22	288	0
TAP	22	288	1
TAP	23	0	5
TAP	23	0	6
TAP	23	96	2
TAP	23	96	3
HLD	23	192	3	96
TAP	23	192	4
BRK	23	288	4
TAP	24	0	4
HLD	24	0	7	96
TAP	24	192	4
TAP	24	192	7
TAP	24	288	6
TAP	24	288	7
TAP	25	0	1
TAP	25	0	2
TAP	25	96	4
TAP	25	96	5
TAP	25	192	3
HLD	25	192	4	96
BRK	25	288	3
TAP	26	0	3
HLD	26	0	5	96
TAP	26	96	4
HLD	26	192	2	96
TAP	26	192	4
TAP	26	288	3
TAP	27	0	3
HLD	27	0	4	96
TAP	27	96	3
HLD	27	192	3	96
TAP	27	192	4
TAP	27	288	4
HLD	28	0	2	96
TAP	28	0	4
TAP	28	96	3
TAP	28	192	3
HLD	28	192	5	96
TAP	28	288	4
TAP	29	0	2
TAP	29	0	3
TAP	29	96	4
TAP	29	96	5
TAP	29	192	1
TAP	29	192	6
TAP	29	288	3
TAP	29	288	4
TAP	30	0	0
TAP	30	48	7
HLD	30	96	6	192
TAP	30	192	5
TAP	30	288	2
TAP	31	0	4
TAP	31	48	3
HLD	31	96	2	192
TAP	31	192	1
TAP	31	288	6
TAP	32	0	3
TAP	32	0	7
TAP	32	96	2
TAP	32	96	6
TAP	32	192	0
TAP	32	192	4
TAP	32	288	1
TAP	32	288	5
TAP	33	0	3
TAP	33	0	7
TAP	33	96	2
TAP	33	96	6
TAP	33	192	1
TAP	33	192	7
TAP	33	288	3
TAP	33	288	5
TAP	34	0	1
HLD	34	0	2	288
TAP	34	96	6
TAP	34	192	7
TAP	34	288	4
HLD	35	0	5	288
TAP	35	0	6
TAP	35	96	1
TAP	35	192	0
TAP	35	288	3
TAP	36	0	4
TAP	36	96	2
TAP	36	192	0
TAP	36	192	1
TAP	36	288	2
TAP	36	288	3
STR	37	0	2
SI_	37	0	2	96	48	5
STR	37	192	4
SI_	37	192	4	96	48	7
TAP	38	0	2
TAP	38	0	6
TAP	38	96	0
TAP	38	192	1
TAP	38	192	5
TAP	38	288	2
TAP	38	288	6
TAP	39	0	0
TAP	39	0	1
TAP	39	96	4
TAP	39	96	5
TAP	39	192	6
TAP	39	288	6
TAP	40	0	1
TAP	40	0	4
TAP	40	96	3
TAP	40	96	6
TAP	40	192	1
TAP	40	192	4
TAP	40	288	3
TAP	40	288	6
TAP	41	0	7
TAP	41	96	3
STR	41	192	0
SI_	41	192	0	96	48	4
TAP	42	0	5
TAP	42	96	4
TAP	42	96	5
TAP	42	192	2
TAP	42	288	2
TAP	42	288	3
HLD	43	0	4	96
TAP	43	0	6
TAP	43	96	6
TAP	43	192	1
HLD	43	192	3	96
TAP	43	288	1
TAP	44	0	3
TAP	44	0	7
TAP	44	96	0
TAP	44	96	4
TAP	44	192	2
TAP	44	192	6
STR	44	288	0
SCL	44	288	0	96	96	5
STR	44	288	4
SCL	44	288	4	96	96	1
STR	45	144	0
SI_	45	144	0	96	96	3
TAP	46	0	1
TAP	46	0	5
TAP	46	96	2
TAP	46	96	6
TAP	46	192	1
TAP	46	192	5
BRK	46	240	6
BRK	46	288	6
TAP	47	0	1
TAP	47	0	5
TAP	47	96	2
TAP	47	96	6
TAP	47	192	1
TAP	47	192	5

T_REC_TAP	231
T_REC_BRK	4
T_REC_XTP	0
T_REC_HLD	27
T_REC_XHO	0
T_REC_STR	9
T_REC_BST	0
T_REC_XST	0
T_REC_TTP	0
T_REC_THO	0
T_REC_SLD	9
T_REC_ALL	280
T_NUM_TAP	240
T_NUM_BRK	4
T_NUM_HLD	27
T_NUM_SLD	9
T_NUM_ALL	280
T_JUDGE_TAP	244
T_JUDGE_HLD	68
T_JUDGE_SLD	9
T_JUDGE_ALL	321
TTM_EACHPAIRS	90
TTM_SCR_TAP	120000
TTM_SCR_BRK	10400
TTM_SCR_HLD	27000
TTM_SCR_SLD	13500
TTM_SCR_ALL	170900
TTM_SCR_S	165400
TTM_SCR_SS	170500
TTM_RAT_ACV	10023

