VERSION	0.00.00	1.03.00
FES_MODE	0
BPM_DEF	127.000	127.000	127.000	127.000
MET_DEF	4	4
RESOLUTION	384
CLK_DEF	384
COMPATIBLE_CODE	MA2

BPM	0	0	127.000
MET	0	0	4	4

TAP	2	0	0
TAP	2	192	3
TAP	3	0	6
TAP	3	192	1
TAP	4	0	4
TAP	4	192	7
TAP	5	0	2
TAP	5	192	5
TAP	6	0	7
HLD	6	96	6	192
TAP	6	192	0
TAP	6	240	0
TAP	6	288	0
TAP	7	0	0
HLD	7	96	1	192
TAP	7	192	7
TAP	7	240	7
TAP	7	288	7
TAP	8	0	6
HLD	8	96	5	192
TAP	8	192	1
TAP	8	240	1
TAP	8	288	1
TAP	9	0	0
TAP	9	96	7
TAP	9	192	6
TAP	9	288	5
TAP	10	0	6
HLD	10	96	7	192
TAP	10	192	3
TAP	10	240	3
TAP	10	288	3
TAP	11	0	1
HLD	11	96	0	192
TAP	11	192	4
TAP	11	240	4
TAP	11	288	4
TAP	12	0	5
HLD	12	96	6	192
TAP	12	192	2
TAP	12	240	2
TAP	12	288	2
TAP	13	0	1
TAP	13	96	0
TAP	13	192	7
BRK	13	288	6
TAP	14	96	0
STR	14	192	1
SI_	14	192	1	96	96	6
TAP	15	96	7
STR	15	192	6
SI_	15	192	6	96	96	1
TAP	16	96	0
STR	16	192	1
SI_	16	192	1	96	96	6
TAP	17	96	7
TAP	17	192	7
STR	18	96	5
SCR	18	96	5	96	96	0
STR	19	96	1
SCR	19	96	1	96	96	4
TAP	20	96	7
TAP	20	192	6
TAP	20	288	7
TAP	21	0	0
TAP	21	72	1
TAP	21	144	1
TAP	22	0	3
TAP	22	96	2
TAP	22	192	3
TAP	22	288	3
TAP	22	288	4
TAP	23	0	4
TAP	23	96	5
TAP	23	192	4
TAP	23	288	3
TAP	23	288	4
TAP	24	0	3
TAP	24	96	2
TAP	24	192	3
TAP	24	288	3
TAP	24	288	4
TAP	25	0	2
TAP	25	96	1
TAP	25	192	0
TAP	26	0	6
TAP	26	96	5
TAP	26	192	6
TAP	26	288	0
TAP	26	288	7
TAP	27	0	1
TAP	27	96	2
TAP	27	192	1
TAP	27	288	0
TAP	27	288	7
TAP	28	0	6
TAP	28	96	5
TAP	28	192	6
TAP	28	288	0
TAP	28	288	7
TAP	29	0	6
TAP	29	96	5
TAP	29	192	4
BRK	30	0	0
TAP	30	0	7
TAP	30	96	3
TAP	30	192	6
TAP	30	288	1
TAP	31	0	4
TAP	31	96	7
TAP	31	192	2
TAP	31	288	5
TAP	32	0	0
TAP	32	0	7
TAP	32	96	3
TAP	32	192	6
TAP	32	288	1
TAP	33	0	4
TAP	33	96	7
TAP	33	192	2
TAP	33	288	5
TAP	34	0	0
BRK	34	0	7
TAP	34	96	5
TAP	34	192	2
TAP	34	288	7
TAP	35	0	4
TAP	35	96	1
TAP	35	192	6
TAP	35	288	3
TAP	36	0	0
TAP	36	0	7
TAP	36	96	5
TAP	36	192	2
TAP	36	288	7
TAP	37	0	4
TAP	37	96	1
TAP	37	192	6
TAP	37	288	3
HLD	38	0	0	96
TAP	38	96	1
HLD	38	192	2	96
TAP	38	240	1
TAP	38	288	1
HLD	39	0	4	96
TAP	39	96	5
HLD	39	192	6	96
TAP	39	240	5
TAP	39	288	5
HLD	40	0	7	95
TAP	40	96	6
HLD	40	192	5	96
TAP	40	240	6
TAP	40	288	6
STR	41	0	7
SI_	41	0	7	96	192	4
HLD	42	0	3	96
TAP	42	96	2
HLD	42	192	1	96
TAP	42	240	2
TAP	42	288	2
HLD	43	0	0	96
TAP	43	96	1
HLD	43	192	2	96
TAP	43	240	1
TAP	43	288	1
HLD	44	0	7	95
TAP	44	96	6
HLD	44	192	5	96
TAP	44	240	6
TAP	44	288	6
TAP	45	0	1
TAP	45	0	5
TAP	45	96	2
TAP	45	96	6
TAP	45	192	1
TAP	45	192	5
TAP	46	0	2
BRK	46	0	7
BRK	46	96	0
TAP	46	96	5
TAP	46	192	2
BRK	46	192	7
TAP	47	0	0
TAP	47	0	7
TAP	47	96	1
TAP	47	96	6
BRK	47	192	0
BRK	47	192	7

T_REC_TAP	151
T_REC_BRK	8
T_REC_XTP	0
T_REC_HLD	18
T_REC_XHO	0
T_REC_STR	6
T_REC_BST	0
T_REC_XST	0
T_REC_TTP	0
T_REC_THO	0
T_REC_SLD	6
T_REC_ALL	189
T_NUM_TAP	157
T_NUM_BRK	8
T_NUM_HLD	18
T_NUM_SLD	6
T_NUM_ALL	189
T_JUDGE_TAP	165
T_JUDGE_HLD	48
T_JUDGE_SLD	6
T_JUDGE_ALL	219
TTM_EACHPAIRS	19
TTM_SCR_TAP	78500
TTM_SCR_BRK	20800
TTM_SCR_HLD	18000
TTM_SCR_SLD	9000
TTM_SCR_ALL	126300
TTM_SCR_S	121750
TTM_SCR_SS	125500
TTM_RAT_ACV	10063

