VERSION	0.00.00	1.03.00
FES_MODE	0
BPM_DEF	127.000	127.000	127.000	127.000
MET_DEF	4	4
RESOLUTION	384
CLK_DEF	384
COMPATIBLE_CODE	MA2

BPM	0	0	127.000
MET	0	0	4	4

TAP	2	0	5
TAP	2	192	2
TAP	3	0	4
TAP	3	192	3
TAP	4	0	5
TAP	4	192	2
TAP	5	0	4
TAP	5	96	3
TAP	6	96	7
TAP	6	288	1
TAP	7	96	0
TAP	7	288	6
TAP	8	96	7
TAP	8	288	1
TAP	9	96	0
TAP	9	288	6
TAP	10	96	6
TAP	10	288	1
TAP	11	96	1
TAP	11	288	6
TAP	12	96	6
TAP	12	288	1
TAP	13	96	1
TAP	13	288	6
TAP	14	192	1
TAP	14	288	1
TAP	15	96	1
TAP	15	288	6
TAP	16	288	1
TAP	16	288	5
BRK	17	288	1
TAP	17	288	5
TAP	18	192	3
TAP	18	192	4
TAP	18	288	3
TAP	18	288	4
TAP	19	192	3
TAP	19	192	4
TAP	19	288	3
TAP	19	288	4
TAP	20	0	5
TAP	20	192	2
TAP	21	0	5
TAP	21	192	2
HLD	22	0	0	96
TAP	22	192	1
TAP	23	288	4
BRK	23	288	5
HLD	24	0	7	96
TAP	24	192	6
BRK	25	288	2
TAP	25	288	3
TAP	26	0	5
TAP	26	192	2
TAP	27	0	6
TAP	27	192	1
TAP	28	0	5
TAP	28	192	2
TAP	29	288	2
TAP	29	288	5
TAP	30	0	4
TAP	30	96	3
TAP	30	192	4
TAP	30	288	3
TAP	31	0	5
TAP	31	96	2
TAP	31	192	5
TAP	31	288	2
TAP	32	0	1
TAP	32	96	0
TAP	32	192	7
TAP	32	288	6
TAP	33	0	6
TAP	33	96	7
TAP	33	192	0
TAP	33	288	1
TAP	34	96	6
TAP	34	288	6
TAP	35	96	1
TAP	35	288	1
TAP	36	192	0
TAP	36	288	3
TAP	37	192	4
TAP	38	192	1
TAP	38	192	5
TAP	38	288	2
TAP	38	288	6
TAP	39	0	2
TAP	39	96	5
TAP	39	192	6
TAP	39	288	6
TAP	40	0	2
TAP	40	192	2
TAP	41	0	2
TAP	41	0	5
TAP	41	192	3
TAP	41	192	4
TAP	42	0	5
TAP	42	192	2
TAP	43	0	6
TAP	43	96	6
TAP	43	192	1
TAP	43	288	1
TAP	44	96	4
TAP	44	192	3
TAP	44	288	4
STR	45	96	0
SI_	45	96	0	96	96	3
TAP	46	0	1
TAP	46	96	6
TAP	46	192	1
TAP	47	0	1
TAP	47	96	6
TAP	47	192	1

T_REC_TAP	107
T_REC_BRK	3
T_REC_XTP	0
T_REC_HLD	2
T_REC_XHO	0
T_REC_STR	1
T_REC_BST	0
T_REC_XST	0
T_REC_TTP	0
T_REC_THO	0
T_REC_SLD	1
T_REC_ALL	114
T_NUM_TAP	108
T_NUM_BRK	3
T_NUM_HLD	2
T_NUM_SLD	1
T_NUM_ALL	114
T_JUDGE_TAP	111
T_JUDGE_HLD	4
T_JUDGE_SLD	1
T_JUDGE_ALL	116
TTM_EACHPAIRS	13
TTM_SCR_TAP	54000
TTM_SCR_BRK	7800
TTM_SCR_HLD	2000
TTM_SCR_SLD	1500
TTM_SCR_ALL	65300
TTM_SCR_S	63050
TTM_SCR_SS	65000
TTM_RAT_ACV	10046

