VERSION	0.00.00	1.03.00
FES_MODE	0
BPM_DEF	128.660	128.660	128.660	128.660
MET_DEF	4	4
RESOLUTION	384
CLK_DEF	384
COMPATIBLE_CODE	MA2

BPM	0	0	128.660
MET	0	0	4	4

TAP	1	48	4
TAP	1	96	3
TAP	1	144	2
TAP	1	192	1
TAP	1	288	0
HLD	2	0	5	385
TAP	2	96	1
TAP	2	192	2
TAP	2	240	3
TAP	2	288	2
TAP	2	336	3
TAP	3	48	3
TAP	3	96	4
TAP	3	144	5
TAP	3	192	6
TAP	3	288	7
HLD	4	0	2	384
TAP	4	96	6
TAP	4	192	5
TAP	4	240	4
TAP	4	288	5
TAP	4	336	4
TAP	5	48	7
TAP	5	96	5
TAP	5	144	6
TAP	5	192	4
TAP	5	288	0
TAP	5	288	2
HLD	6	0	6	384
TAP	6	96	0
TAP	6	192	1
TAP	6	240	4
TAP	6	288	2
TAP	6	336	3
TAP	7	48	0
TAP	7	96	2
TAP	7	144	1
TAP	7	192	3
TAP	7	288	5
TAP	7	288	7
TAP	8	0	6
TAP	8	48	5
TAP	8	96	6
TAP	8	144	5
TAP	8	192	2
TAP	8	240	3
TAP	8	288	4
TAP	8	336	6
TAP	9	0	7
TAP	9	48	0
TAP	9	96	1
TAP	9	144	2
STR	9	192	2
SCL	9	192	2	96	96	7
STR	9	192	6
SCL	9	192	6	96	96	3
TAP	10	96	3
TAP	10	192	0
TAP	10	240	1
HLD	10	264	2	96
TAP	11	0	3
TAP	11	96	4
TAP	11	192	7
TAP	11	240	6
HLD	11	264	5	96
TAP	12	0	6
TAP	12	48	5
TAP	12	96	4
TAP	12	192	0
TAP	12	240	1
HLD	12	264	2	96
TAP	13	0	1
TAP	13	48	2
TAP	13	96	3
TAP	13	192	7
TAP	13	240	6
HLD	13	264	5	96
TAP	14	0	0
TAP	14	96	2
TAP	14	144	1
TAP	14	192	3
TAP	14	240	2
HLD	14	264	4	96
TAP	15	0	7
TAP	15	96	5
TAP	15	144	6
TAP	15	192	4
TAP	15	240	5
HLD	15	264	3	96
TAP	16	0	6
TAP	16	48	5
TAP	16	48	7
TAP	16	96	6
TAP	16	144	5
TAP	16	144	7
TAP	16	192	4
TAP	16	240	3
HLD	16	264	2	96
TAP	17	0	1
TAP	17	48	0
TAP	17	48	2
TAP	17	96	1
TAP	17	144	0
TAP	17	144	2
TAP	17	192	3
TAP	17	240	4
HLD	17	264	0	96
TAP	18	0	0
BRK	18	0	6
TAP	18	48	7
TAP	18	96	0
TAP	18	144	1
TAP	18	192	2
TAP	18	288	4
TAP	18	288	5
TAP	19	0	1
TAP	19	0	7
TAP	19	48	0
TAP	19	96	7
TAP	19	144	6
TAP	19	192	5
TAP	19	288	2
TAP	19	288	3
TAP	20	0	1
TAP	20	0	6
TAP	20	48	0
TAP	20	96	7
TAP	20	144	1
TAP	20	192	5
TAP	20	288	0
TAP	20	288	7
TAP	21	0	2
TAP	21	0	5
TAP	21	48	3
TAP	21	96	4
TAP	21	144	1
TAP	21	192	6
TAP	21	288	1
TAP	21	336	5
TAP	22	0	0
TAP	22	0	7
TAP	22	48	0
TAP	22	48	1
TAP	22	96	6
TAP	22	96	7
TAP	22	144	2
TAP	22	144	5
TAP	22	192	3
TAP	22	192	4
TAP	22	288	0
TAP	22	288	7
TAP	23	0	1
TAP	23	0	3
TAP	23	48	2
TAP	23	96	0
TAP	23	144	1
TAP	23	192	2
TAP	23	192	4
TAP	23	288	0
TAP	23	288	3
TAP	24	0	4
TAP	24	0	6
TAP	24	48	5
TAP	24	96	7
TAP	24	144	6
TAP	24	192	3
TAP	24	192	5
TAP	24	288	1
TAP	24	288	4
TAP	25	0	2
TAP	25	0	5
HLD	25	48	3	240
TAP	25	192	1
BRK	25	288	0
TAP	26	0	0
TAP	26	0	1
TAP	26	96	6
TAP	26	192	0
TAP	26	240	2
TAP	26	288	1
TAP	26	336	3
TAP	27	0	6
TAP	27	0	7
TAP	27	96	1
TAP	27	192	7
TAP	27	240	5
TAP	27	288	6
TAP	27	336	4
TAP	28	0	2
TAP	28	0	3
TAP	28	96	5
TAP	28	192	3
TAP	28	240	1
TAP	28	288	2
TAP	28	336	0
TAP	29	0	4
TAP	29	0	5
TAP	29	96	2
TAP	29	192	4
TAP	29	240	6
TAP	29	288	5
TAP	29	336	7
TAP	30	0	0
TAP	30	0	1
TAP	30	48	5
TAP	30	96	5
TAP	30	96	6
TAP	30	144	5
TAP	30	192	0
TAP	30	192	5
TAP	30	240	2
TAP	30	288	1
TAP	30	288	5
TAP	30	336	3
TAP	31	0	6
TAP	31	0	7
TAP	31	96	1
TAP	31	192	1
TAP	31	192	7
TAP	31	240	5
TAP	31	288	1
TAP	31	288	6
TAP	31	336	4
TAP	32	0	2
TAP	32	0	3
TAP	32	96	5
TAP	32	192	3
TAP	32	192	5
TAP	32	240	1
TAP	32	288	2
TAP	32	288	5
TAP	32	336	0
TAP	33	0	4
TAP	33	0	5
TAP	33	96	2
TAP	33	192	4
TAP	33	240	6
STR	33	288	3
SI_	33	288	3	96	192	7
TAP	34	0	2
TAP	34	72	1
TAP	34	144	0
TAP	34	240	2
TAP	34	240	4
TAP	34	336	3
TAP	34	336	5
TAP	35	48	0
TAP	35	96	1
TAP	35	144	2
TAP	35	192	3
HLD	35	192	4	96
STR	35	288	5
SCR	35	288	5	96	192	0
TAP	36	0	2
TAP	36	72	3
TAP	36	144	3
TAP	36	240	0
TAP	36	240	3
TAP	36	336	1
TAP	36	336	2
TAP	37	48	7
TAP	37	96	6
TAP	37	144	5
HLD	37	192	3	96
TAP	37	192	4
STR	37	288	2
SCL	37	288	2	96	192	7
TAP	38	0	5
TAP	38	72	4
TAP	38	144	4
TAP	38	240	4
TAP	38	240	7
TAP	38	336	5
TAP	38	336	6
TAP	39	48	0
TAP	39	96	6
TAP	39	144	4
HLD	39	192	5	96
TAP	39	192	7
STR	39	288	7
SCR	39	288	7	96	192	2
TAP	40	0	3
TAP	40	72	5
TAP	40	144	6
TAP	40	240	0
TAP	40	240	1
TAP	40	336	6
TAP	40	336	7
TAP	41	48	7
TAP	41	96	1
TAP	41	144	3
TAP	41	192	0
HLD	41	192	2	96
HLD	41	288	7	768
TAP	42	0	0
TAP	42	96	1
TAP	42	192	2
TAP	42	288	3
TAP	43	0	4
TAP	43	96	5
TAP	43	192	6
BRK	43	288	0
TAP	44	0	5
TAP	44	48	4
TAP	44	96	3
TAP	44	144	2
TAP	44	192	1
TAP	44	240	0
TAP	44	288	7
TAP	44	336	6
TAP	45	0	5
TAP	45	48	4
TAP	45	96	3
TAP	45	144	2
TAP	45	192	1
TAP	45	240	0
STR	45	288	7
SI_	45	288	7	96	48	2
STR	46	0	3
SI_	46	0	3	96	48	6
STR	46	96	5
SI_	46	96	5	96	48	0
STR	46	192	1
SI_	46	192	1	96	48	4
STR	46	288	6
SI_	46	288	6	96	48	1
STR	47	0	0
SI_	47	0	0	96	48	3
STR	47	96	2
SI_	47	96	2	96	48	5
STR	47	192	4
SI_	47	192	4	96	48	7
STR	47	288	6
SCL	47	288	6	96	144	3
STR	48	0	4
SCL	48	0	4	96	144	1
STR	48	96	2
SCL	48	96	2	96	144	7
STR	48	192	0
SCL	48	192	0	96	144	5
STR	48	288	6
SCL	48	288	6	96	144	3
STR	49	0	4
SCL	49	0	4	96	144	1
STR	49	96	2
SCL	49	96	2	96	192	7

T_REC_TAP	284
T_REC_BRK	3
T_REC_XTP	0
T_REC_HLD	17
T_REC_XHO	0
T_REC_STR	21
T_REC_BST	0
T_REC_XST	0
T_REC_TTP	0
T_REC_THO	0
T_REC_SLD	21
T_REC_ALL	346
T_NUM_TAP	305
T_NUM_BRK	3
T_NUM_HLD	17
T_NUM_SLD	21
T_NUM_ALL	346
T_JUDGE_TAP	308
T_JUDGE_HLD	70
T_JUDGE_SLD	21
T_JUDGE_ALL	399
TTM_EACHPAIRS	54
TTM_SCR_TAP	152500
TTM_SCR_BRK	7800
TTM_SCR_HLD	17000
TTM_SCR_SLD	31500
TTM_SCR_ALL	208800
TTM_SCR_S	202250
TTM_SCR_SS	208500
TTM_RAT_ACV	10014

