VERSION	0.00.00	1.03.00
FES_MODE	0
BPM_DEF	128.660	128.660	128.660	128.660
MET_DEF	4	4
RESOLUTION	384
CLK_DEF	384
COMPATIBLE_CODE	MA2

BPM	0	0	128.660
MET	0	0	4	4

HLD	1	288	5	768
TAP	2	0	6
TAP	2	96	7
TAP	2	192	0
TAP	2	288	1
TAP	3	0	2
TAP	3	96	3
TAP	3	192	4
HLD	3	288	2	768
TAP	4	0	1
TAP	4	96	0
TAP	4	192	7
TAP	4	288	6
TAP	5	0	5
TAP	5	96	4
TAP	5	192	3
HLD	5	288	7	672
TAP	6	0	0
TAP	6	96	1
TAP	6	192	2
TAP	6	288	3
TAP	7	0	4
TAP	7	96	5
TAP	7	192	6
TAP	7	288	7
TAP	8	0	0
TAP	8	48	1
TAP	8	96	2
TAP	8	144	3
TAP	8	192	4
TAP	8	240	5
TAP	8	288	6
TAP	8	336	7
TAP	9	0	0
TAP	9	48	1
TAP	9	96	2
TAP	9	144	3
STR	9	192	4
SCR	9	192	4	96	96	7
TAP	10	0	0
TAP	10	96	1
TAP	10	192	2
TAP	10	240	3
TAP	10	288	2
TAP	11	0	1
TAP	11	48	0
TAP	11	96	7
TAP	11	144	6
TAP	11	192	5
TAP	11	264	5
TAP	12	0	7
TAP	12	96	6
TAP	12	192	5
TAP	12	240	4
TAP	12	288	5
TAP	13	0	6
TAP	13	48	7
TAP	13	96	0
TAP	13	144	1
TAP	13	192	2
TAP	13	264	2
TAP	14	0	1
TAP	14	96	0
TAP	14	192	7
TAP	14	240	6
TAP	14	288	7
TAP	15	0	0
TAP	15	48	7
TAP	15	96	6
TAP	15	144	7
TAP	15	192	0
TAP	15	240	7
TAP	15	264	6
TAP	16	0	6
TAP	16	96	7
TAP	16	192	0
TAP	16	240	1
TAP	16	288	0
TAP	17	0	7
TAP	17	48	6
TAP	17	96	5
TAP	17	144	4
TAP	17	192	3
TAP	17	240	2
TAP	17	288	1
STR	18	0	0
SCL	18	0	0	96	96	5
TAP	18	192	4
TAP	18	240	3
TAP	18	288	2
STR	19	0	7
SCR	19	0	7	96	96	2
TAP	19	192	3
TAP	19	240	4
TAP	19	288	5
STR	20	0	6
SCL	20	0	6	96	96	3
TAP	20	192	2
TAP	20	240	1
TAP	20	288	0
STR	21	0	1
SCR	21	0	1	96	96	4
TAP	21	192	5
TAP	21	240	6
TAP	21	288	7
TAP	22	0	5
TAP	22	48	6
TAP	22	96	7
TAP	22	144	0
TAP	22	192	1
TAP	22	288	2
TAP	22	288	3
TAP	23	0	2
TAP	23	48	1
TAP	23	96	0
TAP	23	144	7
TAP	23	192	6
TAP	23	288	4
TAP	23	288	5
TAP	24	0	5
TAP	24	48	6
TAP	24	96	7
TAP	24	144	0
TAP	24	192	1
TAP	24	240	0
TAP	24	288	7
TAP	24	336	6
HLD	25	0	5	96
HLD	25	96	4	96
HLD	25	192	3	96
HLD	25	288	2	96
TAP	26	0	1
TAP	26	48	0
TAP	26	96	7
TAP	26	144	0
TAP	26	192	1
TAP	26	240	0
TAP	26	288	7
TAP	27	0	5
TAP	27	48	4
TAP	27	96	3
TAP	27	144	4
TAP	27	192	5
TAP	27	240	4
TAP	27	288	3
TAP	28	0	0
TAP	28	48	1
TAP	28	96	2
TAP	28	144	1
TAP	28	192	0
TAP	28	240	1
TAP	28	288	2
TAP	29	0	4
TAP	29	48	5
TAP	29	96	6
TAP	29	144	5
TAP	29	192	4
TAP	29	240	3
TAP	29	288	4
TAP	29	336	5
TAP	30	48	7
TAP	30	96	0
TAP	30	144	1
STR	30	192	2
SCR	30	192	2	96	96	5
TAP	31	48	0
TAP	31	96	7
TAP	31	144	6
STR	31	192	5
SCL	31	192	5	96	96	2
TAP	32	48	1
TAP	32	96	2
TAP	32	144	3
STR	32	192	4
SCR	32	192	4	96	96	7
STR	33	0	0
SCR	33	0	0	96	96	3
STR	33	192	4
SCR	33	192	4	96	96	7
HLD	34	0	0	96
HLD	34	96	1	96
HLD	34	192	2	96
HLD	34	288	3	96
TAP	35	0	4
TAP	35	96	3
TAP	35	144	2
HLD	35	192	1	96
HLD	35	288	0	96
HLD	36	0	7	96
HLD	36	96	6	96
HLD	36	192	5	96
HLD	36	288	4	96
TAP	37	0	3
TAP	37	96	3
TAP	37	144	4
HLD	37	192	5	96
HLD	37	288	4	96
HLD	38	0	3	96
HLD	38	96	2	96
HLD	38	192	1	96
HLD	38	288	0	96
TAP	39	0	6
TAP	39	96	5
TAP	39	144	4
TAP	39	192	1
TAP	39	288	2
TAP	39	336	3
HLD	40	0	4	96
HLD	40	96	5	96
HLD	40	192	6	96
HLD	40	288	7	96
TAP	41	0	1
TAP	41	96	2
TAP	41	144	3
HLD	41	192	4	96
HLD	41	288	2	96
HLD	42	0	0	96
HLD	42	96	6	96
HLD	42	192	4	96
HLD	42	288	2	96
HLD	43	0	0	96
TAP	43	96	1
TAP	43	144	2
HLD	43	192	3	96
HLD	43	288	5	96
HLD	44	0	7	96
HLD	44	96	1	96
HLD	44	192	3	96
HLD	44	288	5	96
HLD	45	0	7	96
TAP	45	96	6
TAP	45	144	5
HLD	45	192	6	96
HLD	45	288	0	96
HLD	46	0	2	96
HLD	46	96	4	96
HLD	46	192	6	96
HLD	46	288	0	96
HLD	47	0	2	96
HLD	47	96	4	96
HLD	47	192	6	96
TAP	47	288	7
BRK	48	0	0
TAP	48	48	2
BRK	48	96	4
TAP	48	144	6
BRK	48	192	0
TAP	48	240	2
BRK	48	288	4
TAP	48	336	6
BRK	49	0	0
TAP	49	48	2
BRK	49	96	4
TAP	49	144	6
STR	49	192	0
SCR	49	192	0	96	96	3

T_REC_TAP	178
T_REC_BRK	6
T_REC_XTP	0
T_REC_HLD	50
T_REC_XHO	0
T_REC_STR	11
T_REC_BST	0
T_REC_XST	0
T_REC_TTP	0
T_REC_THO	0
T_REC_SLD	11
T_REC_ALL	256
T_NUM_TAP	189
T_NUM_BRK	6
T_NUM_HLD	50
T_NUM_SLD	11
T_NUM_ALL	256
T_JUDGE_TAP	195
T_JUDGE_HLD	140
T_JUDGE_SLD	11
T_JUDGE_ALL	346
TTM_EACHPAIRS	2
TTM_SCR_TAP	94500
TTM_SCR_BRK	15600
TTM_SCR_HLD	50000
TTM_SCR_SLD	16500
TTM_SCR_ALL	176600
TTM_SCR_S	170750
TTM_SCR_SS	176000
TTM_RAT_ACV	10034

