VERSION	0.00.00	1.03.00
FES_MODE	0
BPM_DEF	128.660	128.660	128.660	128.660
MET_DEF	4	4
RESOLUTION	384
CLK_DEF	384
COMPATIBLE_CODE	MA2

BPM	0	0	128.660
MET	0	0	4	4

TAP	1	288	5
HLD	2	0	1	96
BRK	2	96	0
TAP	2	288	7
TAP	3	96	6
TAP	3	288	5
HLD	4	0	4	96
BRK	4	96	5
TAP	4	288	6
TAP	5	96	7
TAP	5	288	0
HLD	6	0	5	96
BRK	6	96	4
TAP	6	288	3
STR	7	96	1
SCL	7	96	1	96	96	6
TAP	8	0	1
TAP	8	96	1
TAP	8	192	6
TAP	8	288	6
TAP	9	0	1
TAP	9	96	1
HLD	9	192	5	192
TAP	10	0	7
TAP	10	96	0
TAP	10	192	1
TAP	10	288	1
TAP	11	0	4
TAP	11	96	5
TAP	11	192	6
TAP	11	288	6
TAP	12	0	0
TAP	12	96	7
TAP	12	192	6
TAP	12	288	6
TAP	13	0	2
TAP	13	96	2
TAP	13	192	5
TAP	13	288	5
HLD	14	0	1	96
HLD	14	192	6	96
TAP	15	0	1
TAP	15	96	6
TAP	15	192	0
TAP	15	288	0
HLD	16	0	5	96
HLD	16	192	2	96
TAP	17	0	0
TAP	17	48	7
TAP	17	96	0
TAP	17	144	7
TAP	17	192	0
TAP	17	192	7
BRK	17	288	0
BRK	17	288	7
HLD	18	0	0	96
STR	18	192	5
SI_	18	192	5	96	192	1
HLD	20	0	7	96
STR	20	192	2
SI_	20	192	2	96	192	6
TAP	22	96	3
TAP	22	192	3
TAP	22	288	2
TAP	23	0	1
TAP	23	96	5
TAP	23	192	7
TAP	23	288	7
TAP	24	96	0
TAP	24	192	0
TAP	24	288	2
HLD	25	0	3	288
HLD	26	0	5	288
TAP	26	96	1
TAP	26	192	2
TAP	26	288	1
HLD	27	0	1	288
TAP	27	96	5
TAP	27	192	6
TAP	27	288	5
HLD	28	0	6	288
TAP	28	96	5
TAP	28	192	4
TAP	28	288	5
HLD	29	0	1	288
TAP	29	96	2
TAP	29	192	3
TAP	29	288	2
HLD	30	0	7	96
TAP	30	96	6
TAP	30	192	0
BRK	30	288	0
BRK	30	288	7
HLD	31	0	0	96
TAP	31	96	1
TAP	31	192	7
BRK	31	288	0
BRK	31	288	7
TAP	32	0	1
TAP	32	96	0
TAP	32	192	7
TAP	32	288	6
TAP	33	0	5
TAP	33	96	5
TAP	33	96	6
TAP	33	192	6
TAP	33	192	7
TAP	33	288	0
TAP	33	288	7
BRK	34	0	0
HLD	34	0	4	768
TAP	34	96	7
TAP	34	192	7
TAP	34	288	7
TAP	35	96	0
TAP	35	192	0
TAP	35	288	0
HLD	36	0	1	768
TAP	36	96	6
TAP	36	192	6
TAP	36	288	6
TAP	37	96	5
TAP	37	192	5
TAP	37	288	5
HLD	38	0	5	288
TAP	38	96	2
TAP	38	192	6
TAP	38	288	2
HLD	39	0	2	288
TAP	39	96	5
TAP	39	192	1
TAP	39	288	5
HLD	40	0	6	288
TAP	40	96	1
TAP	40	192	5
TAP	40	288	1
HLD	41	0	1	288
TAP	41	96	6
TAP	41	192	2
HLD	41	288	6	480
HLD	42	0	7	384
TAP	43	96	5
TAP	43	192	0
HLD	43	288	1	480
HLD	44	0	0	384
TAP	45	96	7
TAP	45	192	6
HLD	45	288	7	480
HLD	46	0	0	384
TAP	47	96	1
TAP	47	192	0
TAP	47	288	1
TAP	48	0	2
TAP	48	96	2
TAP	48	96	3
TAP	48	192	4
TAP	48	288	4
TAP	48	288	5
TAP	49	0	6
TAP	49	96	4
STR	49	96	5
SI_	49	96	5	96	96	2

T_REC_TAP	115
T_REC_BRK	10
T_REC_XTP	0
T_REC_HLD	29
T_REC_XHO	0
T_REC_STR	4
T_REC_BST	0
T_REC_XST	0
T_REC_TTP	0
T_REC_THO	0
T_REC_SLD	4
T_REC_ALL	162
T_NUM_TAP	119
T_NUM_BRK	10
T_NUM_HLD	29
T_NUM_SLD	4
T_NUM_ALL	162
T_JUDGE_TAP	129
T_JUDGE_HLD	166
T_JUDGE_SLD	4
T_JUDGE_ALL	299
TTM_EACHPAIRS	11
TTM_SCR_TAP	59500
TTM_SCR_BRK	26000
TTM_SCR_HLD	29000
TTM_SCR_SLD	6000
TTM_SCR_ALL	120500
TTM_SCR_S	115950
TTM_SCR_SS	119500
TTM_RAT_ACV	10083

