VERSION	0.00.00	1.03.00
FES_MODE	0
BPM_DEF	128.660	128.660	128.660	128.660
MET_DEF	4	4
RESOLUTION	384
CLK_DEF	384
COMPATIBLE_CODE	MA2

BPM	0	0	128.660
MET	0	0	4	4

TAP	2	288	6
TAP	3	288	6
TAP	4	288	6
TAP	5	288	5
TAP	6	288	5
TAP	7	288	6
TAP	8	288	6
TAP	9	96	7
TAP	9	288	0
TAP	10	0	1
TAP	10	96	1
TAP	10	192	1
TAP	11	0	2
TAP	11	96	2
TAP	11	192	2
TAP	12	96	3
TAP	12	288	4
TAP	13	96	5
TAP	13	288	6
TAP	14	0	5
TAP	14	96	5
TAP	14	192	5
TAP	15	0	4
TAP	15	96	4
TAP	15	192	4
TAP	16	96	4
TAP	16	288	3
TAP	17	96	2
TAP	17	288	1
TAP	18	0	1
TAP	18	0	6
TAP	19	0	2
TAP	19	0	7
TAP	20	0	0
TAP	20	0	5
TAP	21	0	1
TAP	21	0	6
TAP	21	192	0
TAP	21	192	7
TAP	22	0	0
TAP	22	0	6
TAP	22	288	7
TAP	23	0	1
TAP	23	0	7
TAP	23	288	0
TAP	24	0	0
TAP	24	0	2
STR	25	0	1
SI_	25	0	1	96	192	5
TAP	26	192	5
TAP	26	288	5
TAP	27	0	1
TAP	27	0	6
TAP	27	192	7
TAP	27	288	0
TAP	28	0	2
TAP	28	0	5
TAP	28	192	4
TAP	28	288	3
TAP	29	0	1
TAP	29	0	6
TAP	29	192	0
TAP	29	288	0
TAP	30	0	0
TAP	30	192	0
TAP	30	192	1
TAP	31	0	2
TAP	31	192	3
TAP	31	192	4
TAP	32	0	5
TAP	32	192	2
TAP	32	192	5
TAP	33	0	6
TAP	33	192	6
HLD	34	0	6	288
TAP	35	96	7
TAP	35	192	7
TAP	35	288	7
STR	36	0	0
SI_	36	0	0	96	192	3
TAP	37	192	2
TAP	37	288	2
HLD	38	0	1	288
TAP	39	96	2
TAP	39	192	3
BRK	39	288	4
STR	40	0	5
SI_	40	0	5	96	192	1
TAP	41	192	0
TAP	41	288	0
HLD	42	0	7	288
TAP	43	96	6
TAP	43	192	7
BRK	43	288	6
HLD	44	0	6	288
TAP	45	96	5
TAP	45	192	6
TAP	45	288	5
STR	46	0	6
SI_	46	0	6	96	192	1
TAP	47	192	1
TAP	47	288	1
TAP	48	0	2
TAP	48	96	2
TAP	48	192	2
BRK	48	288	2
TAP	49	96	1
TAP	49	288	1

T_REC_TAP	93
T_REC_BRK	3
T_REC_XTP	0
T_REC_HLD	4
T_REC_XHO	0
T_REC_STR	4
T_REC_BST	0
T_REC_XST	0
T_REC_TTP	0
T_REC_THO	0
T_REC_SLD	4
T_REC_ALL	108
T_NUM_TAP	97
T_NUM_BRK	3
T_NUM_HLD	4
T_NUM_SLD	4
T_NUM_ALL	108
T_JUDGE_TAP	100
T_JUDGE_HLD	24
T_JUDGE_SLD	4
T_JUDGE_ALL	128
TTM_EACHPAIRS	14
TTM_SCR_TAP	48500
TTM_SCR_BRK	7800
TTM_SCR_HLD	4000
TTM_SCR_SLD	6000
TTM_SCR_ALL	66300
TTM_SCR_S	64050
TTM_SCR_SS	66000
TTM_RAT_ACV	10045

