VERSION	0.00.00	1.03.00
FES_MODE	0
BPM_DEF	130.000	130.000	130.000	130.000
MET_DEF	4	4
RESOLUTION	384
CLK_DEF	384
COMPATIBLE_CODE	MA2

BPM	0	0	130.000
MET	0	0	4	4

HLD	2	0	3	192
HLD	2	192	7	192
HLD	3	0	0	192
HLD	3	192	4	192
HLD	4	0	5	192
HLD	4	192	6	192
TAP	5	0	2
TAP	5	96	0
HLD	5	192	6	96
HLD	5	288	4	96
HLD	6	0	0	192
TAP	6	72	1
HLD	6	192	4	192
TAP	6	264	5
HLD	7	0	3	144
TAP	7	72	2
TAP	7	192	0
TAP	7	192	4
TAP	7	264	3
TAP	7	264	7
TAP	7	336	1
TAP	7	336	5
HLD	8	0	0	192
HLD	8	192	4	192
HLD	9	0	3	96
TAP	9	96	2
HLD	9	192	7	96
TAP	9	240	6
BRK	9	288	5
STR	10	0	0
SCL	10	0	0	96	192	5
TAP	10	72	1
HLD	10	144	2	144
STR	11	0	4
SCL	11	0	4	96	192	1
TAP	11	72	6
HLD	11	144	7	144
TAP	12	0	0
TAP	12	72	1
TAP	12	144	0
TAP	12	192	7
TAP	12	264	6
TAP	12	336	5
TAP	13	0	3
TAP	13	72	2
TAP	13	144	1
TAP	13	192	0
TAP	13	192	6
TAP	13	288	1
TAP	13	288	6
STR	14	0	1
SI_	14	0	1	96	192	4
TAP	14	72	3
HLD	14	144	2	144
STR	15	0	6
SI_	15	0	6	96	192	3
TAP	15	72	4
HLD	15	144	5	144
STR	16	0	6
SCR	16	0	6	96	192	1
STR	16	192	2
SI_	16	192	2	96	96	5
STR	17	0	2
SCR	17	0	2	96	192	5
STR	17	192	6
SI_	17	192	6	96	96	1
HLD	18	0	6	289
TAP	18	192	5
TAP	18	336	7
TAP	19	0	0
TAP	19	72	1
TAP	19	144	2
TAP	19	288	7
TAP	19	336	6
HLD	20	0	5	192
TAP	20	96	4
TAP	20	144	3
HLD	20	192	2	192
TAP	20	288	3
TAP	20	336	4
TAP	21	0	3
TAP	21	72	0
TAP	21	72	1
TAP	21	144	0
TAP	21	144	7
TAP	21	192	0
TAP	21	192	7
TAP	21	288	5
TAP	21	288	6
HLD	22	0	2	288
TAP	22	0	3
TAP	22	72	4
HLD	22	144	5	144
TAP	23	0	4
HLD	23	0	5	288
TAP	23	72	3
HLD	23	144	2	144
STR	24	0	2
SCR	24	0	2	96	192	5
HLD	24	192	1	192
TAP	25	0	0
STR	25	96	7
SI_	25	96	7	96	96	2
STR	25	192	3
SI_	25	192	3	96	96	6
HLD	26	0	7	288
HLD	26	96	6	288
HLD	27	0	5	288
HLD	27	96	4	288
HLD	28	0	3	192
HLD	28	192	2	192
HLD	29	0	1	72
TAP	29	72	0
TAP	29	144	7
TAP	29	192	2
TAP	29	192	5
TAP	29	288	1
TAP	29	288	6
HLD	30	0	3	288
HLD	30	96	2	288
HLD	31	0	1	288
HLD	31	96	0	288
HLD	32	0	7	192
HLD	32	192	6	144
TAP	32	336	5
TAP	33	0	3
TAP	33	0	4
TAP	33	72	1
TAP	33	72	4
TAP	33	144	2
TAP	33	144	7
TAP	33	192	1
TAP	33	192	6
TAP	33	288	0
TAP	33	288	7
TAP	34	0	0
TAP	34	0	7
TAP	34	48	6
STR	34	96	5
SCL	34	96	5	96	96	2
TAP	34	192	1
TAP	34	264	0
TAP	34	336	7
TAP	35	0	1
TAP	35	48	2
STR	35	96	2
SCR	35	96	2	96	96	5
TAP	35	192	6
TAP	35	264	7
TAP	35	336	0
TAP	36	0	0
TAP	36	48	1
TAP	36	96	0
TAP	36	96	7
TAP	36	192	4
TAP	36	240	5
TAP	36	288	3
TAP	36	288	4
TAP	37	0	2
TAP	37	0	7
TAP	37	72	1
TAP	37	72	6
TAP	37	144	0
TAP	37	144	5
TAP	37	192	1
TAP	37	192	4
TAP	37	264	2
TAP	37	264	5
TAP	37	336	3
TAP	37	336	6
TAP	38	0	0
TAP	38	0	7
TAP	38	48	1
STR	38	96	2
SCR	38	96	2	96	96	5
TAP	38	192	6
TAP	38	264	7
TAP	38	336	0
TAP	39	0	5
TAP	39	48	6
STR	39	96	5
SCL	39	96	5	96	96	2
TAP	39	192	1
TAP	39	264	0
TAP	39	336	7
TAP	40	0	7
TAP	40	48	6
TAP	40	96	0
TAP	40	96	7
TAP	40	192	3
TAP	40	240	2
TAP	40	288	3
TAP	40	288	4
TAP	41	0	0
TAP	41	0	7
TAP	41	72	5
TAP	41	72	6
TAP	41	144	2
TAP	41	144	3
TAP	41	192	4
TAP	41	192	5
TAP	41	288	0
TAP	41	288	7
TAP	42	0	1
TAP	42	0	6
TAP	42	48	7
STR	42	96	0
SCL	42	96	0	96	96	5
TAP	42	192	1
TAP	42	264	2
TAP	42	336	3
TAP	43	0	1
TAP	43	48	0
STR	43	96	7
SCR	43	96	7	96	96	2
TAP	43	192	6
TAP	43	264	5
TAP	43	336	7
TAP	44	0	7
TAP	44	48	6
TAP	44	96	0
TAP	44	96	7
TAP	44	192	4
TAP	44	240	5
TAP	44	288	3
TAP	44	288	4
TAP	45	0	2
TAP	45	0	7
TAP	45	72	1
TAP	45	72	6
TAP	45	144	0
TAP	45	144	5
TAP	45	192	1
TAP	45	192	4
TAP	45	264	2
TAP	45	264	5
TAP	45	336	3
TAP	45	336	6
HLD	46	0	6	96
HLD	46	96	2	168
TAP	46	192	1
BRK	46	264	1
TAP	46	312	7
TAP	46	336	0
TAP	47	0	1
TAP	47	48	2
HLD	47	96	3	168
TAP	47	192	4
BRK	47	264	4
TAP	47	336	1
HLD	48	0	5	96
TAP	48	48	6
TAP	48	96	7
HLD	48	192	3	96
TAP	48	240	2
TAP	48	288	1
TAP	49	0	0
TAP	49	0	7
TAP	49	72	1
TAP	49	72	5
TAP	49	144	2
TAP	49	144	6
TAP	49	192	3
TAP	49	192	4

T_REC_TAP	182
T_REC_BRK	3
T_REC_XTP	0
T_REC_HLD	45
T_REC_XHO	0
T_REC_STR	17
T_REC_BST	0
T_REC_XST	0
T_REC_TTP	0
T_REC_THO	0
T_REC_SLD	17
T_REC_ALL	264
T_NUM_TAP	199
T_NUM_BRK	3
T_NUM_HLD	45
T_NUM_SLD	17
T_NUM_ALL	264
T_JUDGE_TAP	202
T_JUDGE_HLD	179
T_JUDGE_SLD	17
T_JUDGE_ALL	398
TTM_EACHPAIRS	48
TTM_SCR_TAP	99500
TTM_SCR_BRK	7800
TTM_SCR_HLD	45000
TTM_SCR_SLD	25500
TTM_SCR_ALL	177800
TTM_SCR_S	172200
TTM_SCR_SS	177500
TTM_RAT_ACV	10016

