VERSION	0.00.00	1.03.00
FES_MODE	0
BPM_DEF	130.000	130.000	130.000	130.000
MET_DEF	4	4
RESOLUTION	384
CLK_DEF	384
COMPATIBLE_CODE	MA2

BPM	0	0	130.000
MET	0	0	4	4

HLD	2	0	0	192
HLD	2	192	4	192
HLD	3	0	2	192
HLD	3	192	0	192
HLD	4	0	4	384
STR	5	0	3
SCL	5	0	3	96	192	0
HLD	6	0	7	192
HLD	6	192	3	192
HLD	7	0	5	192
HLD	7	192	7	192
HLD	8	0	3	384
STR	9	0	4
SCR	9	0	4	96	192	7
HLD	10	0	2	96
HLD	10	0	3	192
HLD	10	192	1	96
HLD	11	0	4	192
HLD	11	0	5	96
HLD	11	192	6	96
TAP	11	288	7
HLD	12	0	3	192
HLD	12	192	2	192
HLD	13	0	1	192
TAP	13	96	5
HLD	13	192	6	96
TAP	13	288	2
HLD	14	0	4	192
HLD	14	0	5	96
HLD	14	192	6	96
HLD	15	0	2	96
HLD	15	0	3	192
HLD	15	192	1	96
TAP	15	288	0
HLD	16	0	4	192
HLD	16	192	5	192
HLD	17	0	6	192
TAP	17	96	2
HLD	17	192	1	96
TAP	17	288	5
STR	18	0	7
SCR	18	0	7	96	96	2
TAP	18	192	3
TAP	18	336	0
STR	19	0	0
SCL	19	0	0	96	96	5
TAP	19	192	4
TAP	20	0	0
TAP	20	48	1
HLD	20	96	0	96
TAP	20	192	7
TAP	20	240	6
HLD	20	288	7	96
TAP	21	0	2
TAP	21	96	3
TAP	21	144	4
HLD	21	192	5	96
STR	22	0	0
SCL	22	0	0	96	96	5
TAP	22	192	4
TAP	22	336	7
STR	23	0	7
SCR	23	0	7	96	96	2
TAP	23	192	3
TAP	23	336	4
STR	24	0	4
SI_	24	0	4	96	96	7
TAP	24	336	0
STR	25	0	0
SI_	25	0	0	96	96	3
TAP	25	288	4
HLD	26	0	3	96
HLD	26	96	6	96
HLD	26	192	5	96
HLD	26	288	0	96
HLD	27	0	1	96
HLD	27	96	5	96
HLD	27	192	4	96
HLD	27	288	2	96
HLD	28	0	3	192
TAP	28	192	4
HLD	29	0	0	72
TAP	29	72	1
TAP	29	144	1
HLD	29	192	7	72
TAP	29	264	6
TAP	29	336	6
HLD	30	0	4	96
HLD	30	96	1	96
HLD	30	192	2	96
HLD	30	288	7	96
HLD	31	0	6	96
HLD	31	96	2	96
HLD	31	192	3	96
HLD	31	288	5	96
HLD	32	0	4	192
TAP	32	192	3
TAP	33	0	6
TAP	33	0	7
TAP	33	72	1
TAP	33	144	1
TAP	33	192	0
TAP	33	192	1
TAP	33	288	6
TAP	34	0	7
TAP	34	96	6
TAP	34	96	7
TAP	34	168	0
TAP	34	192	7
TAP	34	288	6
TAP	34	288	7
TAP	34	336	7
TAP	35	0	0
TAP	35	96	0
TAP	35	96	1
TAP	35	168	7
TAP	35	192	0
TAP	35	288	0
TAP	35	288	1
TAP	35	336	0
TAP	36	0	5
TAP	36	96	4
TAP	36	96	5
TAP	36	192	2
TAP	36	288	2
TAP	36	288	3
TAP	36	336	4
STR	37	0	4
SI_	37	0	4	96	96	0
STR	37	192	7
SI_	37	192	7	96	96	3
TAP	38	0	2
TAP	38	96	2
TAP	38	96	3
TAP	38	168	7
TAP	38	192	0
TAP	38	288	2
TAP	38	288	3
TAP	38	336	3
TAP	39	0	5
TAP	39	96	4
TAP	39	96	5
TAP	39	168	0
TAP	39	192	7
TAP	39	288	4
TAP	39	288	5
TAP	39	336	4
TAP	40	0	2
TAP	40	96	2
TAP	40	96	3
TAP	40	192	5
TAP	40	288	4
TAP	40	288	5
TAP	40	336	1
STR	41	0	1
SCL	41	0	1	96	96	6
TAP	42	0	0
TAP	42	0	1
TAP	42	96	6
TAP	42	96	7
TAP	42	168	0
TAP	42	192	7
TAP	42	288	0
TAP	42	288	1
TAP	42	336	0
TAP	43	0	6
TAP	43	0	7
TAP	43	96	0
TAP	43	96	1
TAP	43	168	7
TAP	43	192	0
TAP	43	288	6
TAP	43	288	7
TAP	43	336	7
TAP	44	0	4
TAP	44	96	0
TAP	44	96	7
TAP	44	168	2
TAP	44	192	3
TAP	44	288	0
TAP	44	288	7
TAP	44	360	5
STR	45	0	4
SI_	45	0	4	96	96	0
STR	45	192	7
SI_	45	192	7	96	96	3
TAP	46	0	4
TAP	46	96	2
TAP	46	96	3
TAP	46	168	4
TAP	46	192	3
TAP	46	264	4
TAP	46	288	5
TAP	46	336	2
TAP	47	0	3
TAP	47	96	4
TAP	47	96	5
TAP	47	168	3
TAP	47	192	4
TAP	47	264	3
TAP	47	288	2
TAP	47	336	5
HLD	48	0	3	192
TAP	48	96	2
HLD	48	192	4	192
TAP	48	288	5
STR	49	0	0
SI_	49	0	0	96	96	3
BRK	49	144	4
BRK	49	192	4

T_REC_TAP	125
T_REC_BRK	2
T_REC_XTP	0
T_REC_HLD	55
T_REC_XHO	0
T_REC_STR	14
T_REC_BST	0
T_REC_XST	0
T_REC_TTP	0
T_REC_THO	0
T_REC_SLD	14
T_REC_ALL	210
T_NUM_TAP	139
T_NUM_BRK	2
T_NUM_HLD	55
T_NUM_SLD	14
T_NUM_ALL	210
T_JUDGE_TAP	141
T_JUDGE_HLD	166
T_JUDGE_SLD	14
T_JUDGE_ALL	321
TTM_EACHPAIRS	28
TTM_SCR_TAP	69500
TTM_SCR_BRK	5200
TTM_SCR_HLD	55000
TTM_SCR_SLD	21000
TTM_SCR_ALL	150700
TTM_SCR_S	146000
TTM_SCR_SS	150500
TTM_RAT_ACV	10013

