VERSION	0.00.00	1.03.00
FES_MODE	0
BPM_DEF	130.000	130.000	130.000	130.000
MET_DEF	4	4
RESOLUTION	384
CLK_DEF	384
COMPATIBLE_CODE	MA2

BPM	0	0	130.000
MET	0	0	4	4

HLD	2	0	5	384
HLD	3	0	1	384
HLD	4	0	0	384
HLD	5	0	7	288
STR	5	288	1
SCL	5	288	1	96	192	6
TAP	7	0	5
TAP	8	0	6
TAP	8	192	7
HLD	9	0	7	192
STR	9	288	0
SI_	9	288	0	96	192	4
STR	12	0	5
SI_	12	0	5	96	192	1
HLD	14	0	2	288
HLD	15	0	1	288
HLD	16	0	0	288
HLD	17	0	7	288
TAP	18	0	6
TAP	18	192	7
TAP	19	0	6
TAP	19	192	7
TAP	20	0	0
TAP	20	192	1
TAP	21	0	2
TAP	21	192	1
TAP	21	288	1
HLD	22	0	3	384
TAP	22	192	5
HLD	23	0	4	384
TAP	23	192	2
HLD	24	0	5	192
HLD	24	192	6	192
HLD	25	0	7	192
BRK	25	288	7
STR	26	0	5
SCR	26	0	5	96	192	0
STR	27	0	2
SCL	27	0	2	96	192	7
TAP	28	192	1
TAP	29	0	0
TAP	29	192	6
STR	30	0	5
SI_	30	0	5	96	192	0
STR	31	0	2
SI_	31	0	2	96	192	7
TAP	32	192	1
TAP	33	0	0
TAP	33	192	1
TAP	33	288	1
TAP	34	0	0
TAP	34	96	0
TAP	34	96	2
TAP	34	192	0
TAP	34	288	0
TAP	35	0	7
TAP	35	96	5
TAP	35	96	7
TAP	35	192	7
TAP	35	288	7
TAP	36	0	5
TAP	36	96	4
TAP	36	192	3
TAP	36	288	2
HLD	37	0	1	288
TAP	37	96	0
TAP	37	192	7
TAP	37	288	0
TAP	38	0	6
TAP	38	96	5
TAP	38	96	6
TAP	38	192	5
TAP	38	288	5
TAP	39	0	1
TAP	39	96	1
TAP	39	96	2
TAP	39	192	2
TAP	39	288	2
TAP	40	0	2
TAP	40	96	3
TAP	40	192	4
TAP	40	288	5
HLD	41	0	6	192
TAP	41	96	7
TAP	41	192	7
TAP	42	0	1
HLD	42	96	1	192
TAP	42	192	7
TAP	42	288	7
TAP	43	0	6
HLD	43	96	6	192
TAP	43	192	0
TAP	43	288	0
TAP	44	0	5
TAP	44	96	4
TAP	44	192	3
TAP	44	288	2
HLD	45	0	1	288
TAP	45	96	0
TAP	45	192	7
TAP	45	288	0
TAP	46	0	4
TAP	46	96	3
TAP	46	96	5
TAP	46	192	2
TAP	46	288	2
TAP	47	0	1
TAP	47	96	0
TAP	47	96	2
TAP	47	192	7
TAP	47	288	7
TAP	48	0	5
HLD	48	96	5	192
TAP	48	192	0
TAP	48	288	1
HLD	49	0	2	192
TAP	49	96	1
BRK	49	192	1

T_REC_TAP	81
T_REC_BRK	2
T_REC_XTP	0
T_REC_HLD	21
T_REC_XHO	0
T_REC_STR	7
T_REC_BST	0
T_REC_XST	0
T_REC_TTP	0
T_REC_THO	0
T_REC_SLD	7
T_REC_ALL	118
T_NUM_TAP	88
T_NUM_BRK	2
T_NUM_HLD	21
T_NUM_SLD	7
T_NUM_ALL	118
T_JUDGE_TAP	90
T_JUDGE_HLD	118
T_JUDGE_SLD	7
T_JUDGE_ALL	215
TTM_EACHPAIRS	6
TTM_SCR_TAP	44000
TTM_SCR_BRK	5200
TTM_SCR_HLD	21000
TTM_SCR_SLD	10500
TTM_SCR_ALL	80700
TTM_SCR_S	78100
TTM_SCR_SS	80500
TTM_RAT_ACV	10024

