VERSION	0.00.00	1.03.00
FES_MODE	0
BPM_DEF	155.300	155.300	155.300	155.300
MET_DEF	4	4
RESOLUTION	384
CLK_DEF	384
COMPATIBLE_CODE	MA2

BPM	0	0	155.300
MET	0	0	4	4

TAP	1	0	6
TAP	1	96	7
TAP	1	192	1
TAP	1	192	7
TAP	1	240	0
HLD	1	240	6	144
HLD	2	0	5	384
HLD	3	0	4	384
HLD	4	0	3	384
TAP	5	0	2
TAP	5	96	3
TAP	5	192	3
TAP	5	192	5
HLD	5	240	2	432
TAP	5	240	4
TAP	6	0	1
TAP	6	96	1
TAP	6	192	1
TAP	6	288	1
TAP	7	0	0
TAP	7	96	7
TAP	7	192	6
TAP	7	288	5
TAP	8	0	5
TAP	8	0	6
TAP	8	72	0
TAP	8	72	7
TAP	8	144	1
TAP	8	144	2
TAP	8	216	3
TAP	8	216	4
TAP	8	288	0
TAP	8	288	6
BRK	8	336	1
BRK	8	336	7
HLD	9	0	1	96
HLD	9	0	6	96
TAP	9	192	7
TAP	9	240	6
TAP	9	288	7
TAP	9	336	6
TAP	10	0	5
TAP	10	24	5
TAP	10	72	6
TAP	10	144	7
TAP	10	192	0
TAP	10	264	1
TAP	10	336	0
TAP	11	24	1
TAP	11	96	0
TAP	11	192	6
TAP	11	240	5
TAP	11	288	6
TAP	11	336	5
TAP	12	0	1
TAP	12	24	2
TAP	12	72	1
TAP	12	144	2
TAP	12	192	1
TAP	12	192	7
TAP	12	264	0
TAP	12	264	6
TAP	12	336	1
TAP	12	336	7
TAP	13	24	0
TAP	13	24	6
TAP	13	96	1
TAP	13	96	7
TAP	13	192	7
TAP	13	240	6
TAP	13	288	7
TAP	13	336	6
TAP	14	0	5
TAP	14	24	5
TAP	14	72	6
TAP	14	144	7
TAP	14	192	0
TAP	14	264	1
TAP	14	336	0
TAP	15	24	1
TAP	15	96	0
TAP	15	192	6
TAP	15	240	5
TAP	15	288	6
TAP	15	336	5
TAP	16	0	1
TAP	16	24	2
TAP	16	72	1
TAP	16	144	2
TAP	16	192	1
TAP	16	192	7
TAP	16	264	0
TAP	16	264	6
TAP	16	336	1
TAP	16	336	7
TAP	17	24	0
TAP	17	24	6
TAP	17	96	1
TAP	17	96	7
BRK	17	144	0
BRK	17	144	6
HLD	17	192	3	96
TAP	17	288	2
TAP	18	0	1
TAP	18	48	0
TAP	18	96	0
TAP	18	96	1
HLD	18	192	4	96
TAP	18	288	5
TAP	19	0	6
TAP	19	48	6
TAP	19	48	7
TAP	19	96	6
TAP	19	144	0
TAP	19	192	7
TAP	19	240	0
TAP	19	288	7
TAP	19	336	0
TAP	20	0	3
TAP	20	24	4
TAP	20	72	3
TAP	20	144	4
TAP	20	192	0
TAP	20	192	6
TAP	20	264	1
TAP	20	264	7
TAP	20	336	0
TAP	20	336	6
TAP	21	24	1
TAP	21	24	7
TAP	21	96	0
TAP	21	96	6
TAP	21	144	0
TAP	21	144	6
HLD	21	192	3	96
TAP	21	288	2
TAP	22	0	1
TAP	22	48	0
TAP	22	96	0
TAP	22	96	1
HLD	22	192	4	96
TAP	22	288	5
TAP	23	0	6
TAP	23	48	7
TAP	23	96	6
TAP	23	96	7
TAP	23	144	0
TAP	23	192	7
TAP	23	240	0
TAP	23	288	7
TAP	23	336	0
TAP	24	0	3
TAP	24	24	4
TAP	24	72	3
TAP	24	144	4
TAP	24	192	0
TAP	24	192	6
TAP	24	264	1
TAP	24	264	7
TAP	24	336	0
TAP	24	336	6
TAP	25	24	1
TAP	25	24	7
TAP	25	96	0
TAP	25	96	6
TAP	25	144	0
TAP	25	144	6
TAP	25	192	1
TAP	25	288	6
TAP	25	336	7
TAP	26	48	3
TAP	26	48	4
TAP	26	144	6
TAP	26	240	1
TAP	26	288	0
TAP	27	0	1
TAP	27	0	6
TAP	27	96	3
TAP	27	96	4
TAP	27	192	4
TAP	27	240	5
STR	27	288	4
SI_	27	288	4	96	48	1
TAP	28	0	3
TAP	28	48	2
STR	28	96	3
SI_	28	96	3	96	48	6
TAP	28	192	0
TAP	28	240	7
TAP	28	288	0
TAP	28	336	7
TAP	29	48	6
TAP	29	96	7
TAP	29	144	0
TAP	29	192	1
TAP	29	288	6
TAP	29	336	7
TAP	30	48	2
TAP	30	48	5
TAP	30	144	6
TAP	30	240	1
TAP	30	288	0
TAP	31	0	3
TAP	31	0	4
TAP	31	96	1
TAP	31	96	6
HLD	31	192	6	96
HLD	31	288	1	48
HLD	32	0	2	96
HLD	32	96	5	48
TAP	32	144	0
HLD	32	192	1	96
HLD	32	288	6	48
TAP	33	0	3
TAP	33	0	5
TAP	33	48	2
TAP	33	48	4
HLD	33	192	7	96
HLD	33	288	0	96
HLD	34	0	1	192
HLD	34	48	6	144
TAP	34	240	1
TAP	34	288	0
TAP	34	336	1
TAP	35	0	6
TAP	35	48	5
TAP	35	96	4
TAP	35	240	6
TAP	35	288	7
TAP	35	336	6
TAP	36	0	1
TAP	36	48	2
TAP	36	96	3
TAP	36	144	3
TAP	36	240	2
TAP	36	288	1
TAP	36	336	1
TAP	37	0	5
BRK	37	96	6
HLD	37	192	7	96
HLD	37	288	0	96
HLD	38	0	1	192
HLD	38	48	6	144
STR	38	240	1
SI_	38	240	1	96	48	4
TAP	38	288	1
TAP	38	336	0
TAP	39	0	5
TAP	39	48	5
TAP	39	96	4
STR	39	240	6
SI_	39	240	6	96	48	3
TAP	39	288	6
TAP	39	336	7
TAP	40	0	2
TAP	40	48	2
TAP	40	96	3
TAP	40	144	3
TAP	40	144	4
TAP	40	240	7
TAP	40	288	0
TAP	40	336	7
TAP	41	0	1
TAP	41	0	6
BRK	41	96	1
BRK	41	96	6
HLD	41	192	7	96
HLD	41	288	0	96
HLD	42	0	1	192
HLD	42	48	6	144
STR	42	240	1
SCR	42	240	1	96	48	4
TAP	42	288	1
TAP	42	336	0
TAP	43	0	0
TAP	43	48	7
TAP	43	96	6
STR	43	240	6
SCL	43	240	6	96	48	3
TAP	43	288	6
TAP	43	336	7
TAP	44	0	7
TAP	44	48	0
TAP	44	96	1
TAP	44	240	3
TAP	44	288	4
TAP	44	336	3
TAP	44	336	5
TAP	45	0	0
TAP	45	0	1
BRK	45	96	6
BRK	45	96	7
HLD	45	192	7	96
HLD	45	288	0	96
HLD	46	0	1	192
HLD	46	48	6	144
STR	46	240	1
SI_	46	240	1	96	48	4
TAP	46	288	1
TAP	46	336	0
TAP	47	0	0
STR	47	48	1
SCR	47	48	1	96	48	4
STR	47	240	6
SI_	47	240	6	96	48	3
TAP	47	288	6
TAP	47	336	7
TAP	48	0	7
STR	48	48	6
SCR	48	48	6	96	48	1
TAP	48	240	3
TAP	48	288	2
TAP	48	288	4
TAP	48	336	3
TAP	48	336	5
TAP	49	0	6
TAP	49	0	7
TAP	49	96	0
TAP	49	96	1
BRK	49	192	0
BRK	49	192	6
TAP	49	240	1
TAP	49	240	6
TAP	49	288	7
TAP	49	336	6
TAP	50	0	5
TAP	50	24	5
TAP	50	72	6
TAP	50	144	7
TAP	50	192	0
TAP	50	264	1
TAP	50	336	0
TAP	51	24	1
TAP	51	96	0
TAP	51	192	6
TAP	51	240	5
TAP	51	288	6
TAP	51	336	5
TAP	52	0	1
TAP	52	24	2
TAP	52	72	1
TAP	52	120	2
TAP	52	192	1
TAP	52	192	7
TAP	52	264	0
TAP	52	264	6
TAP	52	336	1
TAP	52	336	7
TAP	53	24	0
TAP	53	24	6
BRK	53	96	1
BRK	53	96	7
TAP	53	144	3
TAP	53	144	5
HLD	53	192	2	288
HLD	53	192	6	288

T_REC_TAP	288
T_REC_BRK	13
T_REC_XTP	0
T_REC_HLD	35
T_REC_XHO	0
T_REC_STR	10
T_REC_BST	0
T_REC_XST	0
T_REC_TTP	0
T_REC_THO	0
T_REC_SLD	10
T_REC_ALL	356
T_NUM_TAP	298
T_NUM_BRK	13
T_NUM_HLD	35
T_NUM_SLD	10
T_NUM_ALL	356
T_JUDGE_TAP	311
T_JUDGE_HLD	113
T_JUDGE_SLD	10
T_JUDGE_ALL	434
TTM_EACHPAIRS	65
TTM_SCR_TAP	149000
TTM_SCR_BRK	33800
TTM_SCR_HLD	35000
TTM_SCR_SLD	15000
TTM_SCR_ALL	232800
TTM_SCR_S	224600
TTM_SCR_SS	231500
TTM_RAT_ACV	10056

