VERSION	0.00.00	1.03.00
FES_MODE	0
BPM_DEF	155.300	155.300	155.300	155.300
MET_DEF	4	4
RESOLUTION	384
CLK_DEF	384
COMPATIBLE_CODE	MA2

BPM	0	0	155.300
MET	0	0	4	4

HLD	1	0	5	384
STR	1	96	6
SCR	1	96	6	96	96	1
HLD	2	0	1	384
HLD	3	0	7	384
HLD	4	0	3	384
HLD	5	0	6	192
TAP	5	96	5
HLD	5	192	1	864
HLD	7	0	7	288
TAP	8	0	1
TAP	8	72	1
TAP	8	144	0
TAP	8	216	0
STR	8	288	7
SI_	8	288	7	96	96	4
TAP	9	192	1
TAP	9	288	2
HLD	10	0	0	96
TAP	10	96	7
HLD	10	192	5	96
HLD	10	288	1	96
HLD	11	0	7	96
HLD	11	96	3	96
TAP	11	192	6
TAP	11	288	5
HLD	12	0	4	96
TAP	12	96	3
STR	12	192	1
SCL	12	192	1	96	48	6
STR	13	0	6
SCR	13	0	6	96	48	1
TAP	13	192	0
TAP	13	288	1
HLD	14	0	2	96
TAP	14	96	1
HLD	14	192	0	96
HLD	14	288	4	96
HLD	15	0	6	96
HLD	15	96	2	96
TAP	15	192	7
TAP	15	288	6
TAP	16	0	0
TAP	16	96	1
TAP	16	192	0
TAP	16	192	6
TAP	16	288	2
TAP	16	288	7
TAP	17	0	1
TAP	17	0	4
TAP	17	96	3
TAP	17	96	5
TAP	17	192	3
TAP	17	192	7
TAP	17	288	2
TAP	18	0	1
TAP	18	96	2
TAP	18	192	0
TAP	18	192	4
TAP	18	288	5
TAP	19	0	2
TAP	19	0	6
TAP	19	96	0
TAP	19	192	7
HLD	19	288	5	96
HLD	20	0	7	96
TAP	20	96	0
TAP	20	192	3
TAP	20	192	7
TAP	20	288	0
TAP	20	288	4
TAP	21	0	2
TAP	21	0	6
TAP	21	96	1
TAP	21	96	5
TAP	21	192	3
TAP	21	192	7
TAP	21	288	2
TAP	22	0	1
TAP	22	96	2
TAP	22	192	0
TAP	22	192	4
TAP	22	288	5
TAP	23	0	2
TAP	23	0	6
TAP	23	96	0
TAP	23	192	7
HLD	23	288	2	96
HLD	24	0	0	96
TAP	24	96	7
TAP	24	192	1
TAP	24	192	2
TAP	24	288	5
TAP	24	288	6
TAP	25	0	2
TAP	25	0	3
TAP	25	96	4
TAP	25	96	5
TAP	25	192	1
TAP	25	288	1
HLD	25	336	4	96
TAP	26	48	3
TAP	26	144	5
TAP	26	240	5
HLD	26	288	1	192
TAP	27	0	2
STR	27	96	7
SI_	27	96	7	96	96	3
STR	27	288	5
SI_	27	288	5	96	96	1
TAP	28	192	0
TAP	28	240	1
TAP	28	288	0
TAP	28	336	1
TAP	29	0	5
TAP	29	48	4
TAP	29	96	5
TAP	29	144	4
TAP	29	192	6
TAP	29	288	6
HLD	29	336	3	96
TAP	30	48	4
TAP	30	144	0
TAP	30	240	0
HLD	30	288	5	192
TAP	31	0	7
TAP	31	96	2
HLD	31	192	6	336
STR	31	288	5
SI_	31	288	5	96	96	2
TAP	32	240	1
TAP	32	288	0
TAP	32	336	1
TAP	33	0	7
BRK	33	48	6
TAP	33	192	1
TAP	33	192	5
TAP	33	288	3
HLD	33	288	7	288
STR	34	0	5
SI_	34	0	5	96	96	0
TAP	34	288	3
TAP	34	288	7
TAP	35	0	0
HLD	35	0	1	192
TAP	35	96	5
TAP	35	288	0
TAP	35	288	4
HLD	36	0	6	144
TAP	36	0	7
TAP	36	96	2
TAP	36	144	2
TAP	36	240	1
TAP	36	240	2
TAP	36	288	0
TAP	36	288	1
TAP	37	0	0
TAP	37	0	7
TAP	37	96	0
TAP	37	96	7
TAP	37	192	2
TAP	37	192	6
HLD	37	288	0	288
TAP	37	288	4
STR	38	0	2
SI_	38	0	2	96	96	7
TAP	38	288	0
TAP	38	288	4
HLD	39	0	6	192
TAP	39	0	7
TAP	39	96	2
TAP	39	288	3
TAP	39	288	7
TAP	40	0	0
HLD	40	0	1	144
TAP	40	96	5
TAP	40	144	5
TAP	40	240	5
TAP	40	240	6
TAP	40	288	6
TAP	40	288	7
TAP	41	0	0
TAP	41	0	7
TAP	41	96	0
TAP	41	96	7
TAP	41	192	1
TAP	41	192	5
TAP	41	288	3
HLD	41	288	7	288
STR	42	0	5
SI_	42	0	5	96	96	0
TAP	42	288	3
TAP	42	288	7
TAP	43	0	0
HLD	43	0	1	192
TAP	43	96	5
TAP	43	288	0
TAP	43	288	4
HLD	44	0	6	144
TAP	44	0	7
TAP	44	96	2
TAP	44	144	2
TAP	44	240	0
TAP	44	240	1
TAP	44	288	1
TAP	44	288	2
TAP	45	0	5
TAP	45	0	6
TAP	45	96	0
TAP	45	96	7
TAP	45	192	2
TAP	45	192	6
HLD	45	288	0	288
TAP	45	288	4
STR	46	0	2
SI_	46	0	2	96	96	7
TAP	46	288	0
TAP	46	288	4
HLD	47	0	6	96
TAP	47	0	7
TAP	47	96	2
TAP	47	288	3
TAP	47	288	7
TAP	48	0	0
HLD	48	0	1	144
TAP	48	96	5
TAP	48	144	5
TAP	48	288	0
TAP	48	288	2
TAP	49	0	5
TAP	49	0	7
BRK	49	96	0
BRK	49	96	7
TAP	49	192	1
TAP	49	288	2
HLD	50	0	0	96
TAP	50	96	1
HLD	50	192	5	96
HLD	50	288	1	96
HLD	51	0	7	96
HLD	51	96	3	96
TAP	51	192	6
TAP	51	288	5
HLD	52	0	4	96
TAP	52	96	5
TAP	52	288	0
TAP	53	0	1
TAP	53	96	2
HLD	53	192	1	288

T_REC_TAP	178
T_REC_BRK	3
T_REC_XTP	0
T_REC_HLD	46
T_REC_XHO	0
T_REC_STR	11
T_REC_BST	0
T_REC_XST	0
T_REC_TTP	0
T_REC_THO	0
T_REC_SLD	11
T_REC_ALL	249
T_NUM_TAP	189
T_NUM_BRK	3
T_NUM_HLD	46
T_NUM_SLD	11
T_NUM_ALL	249
T_JUDGE_TAP	192
T_JUDGE_HLD	177
T_JUDGE_SLD	11
T_JUDGE_ALL	380
TTM_EACHPAIRS	57
TTM_SCR_TAP	94500
TTM_SCR_BRK	7800
TTM_SCR_HLD	46000
TTM_SCR_SLD	16500
TTM_SCR_ALL	164800
TTM_SCR_S	159600
TTM_SCR_SS	164500
TTM_RAT_ACV	10018

