VERSION	0.00.00	1.03.00
FES_MODE	0
BPM_DEF	155.300	155.300	155.300	155.300
MET_DEF	4	4
RESOLUTION	384
CLK_DEF	384
COMPATIBLE_CODE	MA2

BPM	0	0	155.300
MET	0	0	4	4

HLD	1	0	0	288
HLD	2	0	1	288
HLD	3	0	2	288
HLD	4	0	3	288
TAP	5	0	6
TAP	5	96	1
TAP	5	192	2
HLD	5	192	7	480
HLD	7	0	0	288
HLD	8	0	1	288
STR	8	288	6
SI_	8	288	6	96	96	1
TAP	9	192	7
TAP	9	288	6
TAP	10	0	7
TAP	10	96	6
TAP	10	192	2
TAP	10	288	3
TAP	11	0	2
TAP	11	96	3
TAP	11	192	0
TAP	11	192	7
TAP	11	288	1
TAP	12	0	0
TAP	12	0	7
TAP	12	96	6
STR	12	192	2
SI_	12	192	2	96	96	7
STR	13	0	5
SI_	13	0	5	96	96	0
TAP	13	192	7
TAP	13	288	6
TAP	14	0	7
TAP	14	96	6
TAP	14	192	2
TAP	14	288	3
TAP	15	0	2
TAP	15	96	3
TAP	15	192	0
TAP	15	192	7
TAP	15	288	1
TAP	16	0	0
TAP	16	0	7
TAP	16	96	6
HLD	16	192	5	288
TAP	17	192	2
TAP	17	288	2
TAP	17	288	3
TAP	18	0	7
TAP	18	96	6
TAP	18	96	7
TAP	18	192	0
TAP	18	288	0
TAP	18	288	1
TAP	19	0	4
TAP	19	96	4
TAP	19	96	5
HLD	19	192	1	96
TAP	19	288	0
HLD	20	0	7	96
TAP	20	96	6
TAP	20	192	5
TAP	20	192	6
TAP	20	288	6
TAP	20	288	7
TAP	21	0	0
TAP	21	0	7
BRK	21	96	0
BRK	21	96	1
TAP	21	192	2
TAP	21	288	2
TAP	21	288	3
TAP	22	0	7
TAP	22	96	6
TAP	22	96	7
TAP	22	192	0
TAP	22	288	0
TAP	22	288	1
TAP	23	0	4
TAP	23	96	4
TAP	23	96	5
HLD	23	192	1	96
TAP	23	288	0
HLD	24	0	7	96
TAP	24	96	6
HLD	24	192	1	96
HLD	24	288	0	96
HLD	25	0	7	96
HLD	25	96	6	96
TAP	25	288	1
HLD	25	288	6	192
TAP	26	0	5
BRK	26	96	0
TAP	26	192	6
HLD	26	288	1	192
TAP	26	288	6
TAP	27	0	2
BRK	27	96	7
HLD	27	192	0	96
HLD	28	0	7	96
TAP	28	192	0
TAP	28	288	1
TAP	28	288	5
TAP	29	0	7
TAP	29	96	2
TAP	29	96	6
TAP	29	192	1
TAP	29	288	1
HLD	29	288	6	192
TAP	30	0	5
BRK	30	96	0
TAP	30	192	6
HLD	30	288	1	192
TAP	30	288	6
TAP	31	0	2
BRK	31	96	7
TAP	31	192	0
STR	31	288	6
SI_	31	288	6	96	96	1
STR	32	288	1
SI_	32	288	1	96	96	6
TAP	33	192	4
HLD	33	192	7	96
TAP	33	288	1
HLD	34	0	0	96
TAP	34	0	3
TAP	34	96	6
TAP	34	192	1
TAP	34	288	5
HLD	35	0	0	96
TAP	35	96	2
TAP	35	192	6
TAP	35	288	2
HLD	36	0	7	96
TAP	36	96	5
TAP	36	192	0
TAP	36	288	0
TAP	37	0	7
TAP	37	96	7
HLD	37	192	4	96
TAP	37	192	5
TAP	37	288	0
TAP	38	0	2
HLD	38	0	3	96
TAP	38	96	7
TAP	38	192	1
TAP	38	288	5
HLD	39	0	0	96
TAP	39	96	2
TAP	39	192	6
TAP	39	288	2
HLD	40	0	7	96
TAP	40	96	5
TAP	40	192	0
TAP	40	288	0
TAP	41	0	7
TAP	41	96	7
HLD	41	192	0	96
TAP	41	192	1
TAP	41	288	7
TAP	42	0	6
HLD	42	0	7	96
TAP	42	96	0
TAP	42	192	2
TAP	42	288	6
HLD	43	0	3	96
TAP	43	96	1
TAP	43	192	5
TAP	43	288	1
HLD	44	0	4	96
TAP	44	96	6
TAP	44	192	7
TAP	44	288	7
TAP	45	0	0
TAP	45	96	0
TAP	45	192	5
HLD	45	192	7	96
TAP	45	288	1
HLD	46	0	0	96
TAP	46	0	2
TAP	46	96	6
TAP	46	192	5
TAP	46	288	1
HLD	47	0	4	96
TAP	47	96	6
TAP	47	192	2
TAP	47	288	6
HLD	48	0	3	96
TAP	48	96	1
TAP	48	192	7
TAP	48	288	7
BRK	49	0	0
BRK	49	0	1
BRK	49	96	1
BRK	49	96	2
HLD	49	192	6	288
TAP	49	288	0
TAP	50	0	4
TAP	50	96	0
HLD	50	192	1	288
TAP	50	288	7
TAP	51	0	3
TAP	51	96	7
HLD	51	192	0	96
TAP	51	192	7
TAP	51	288	1
TAP	52	0	0
HLD	52	0	7	96
TAP	52	96	6
TAP	52	192	7
TAP	52	288	0
TAP	53	0	1
TAP	53	96	2
HLD	53	192	1	288

T_REC_TAP	151
T_REC_BRK	10
T_REC_XTP	0
T_REC_HLD	43
T_REC_XHO	0
T_REC_STR	5
T_REC_BST	0
T_REC_XST	0
T_REC_TTP	0
T_REC_THO	0
T_REC_SLD	5
T_REC_ALL	214
T_NUM_TAP	156
T_NUM_BRK	10
T_NUM_HLD	43
T_NUM_SLD	5
T_NUM_ALL	214
T_JUDGE_TAP	166
T_JUDGE_HLD	142
T_JUDGE_SLD	5
T_JUDGE_ALL	313
TTM_EACHPAIRS	35
TTM_SCR_TAP	78000
TTM_SCR_BRK	26000
TTM_SCR_HLD	43000
TTM_SCR_SLD	7500
TTM_SCR_ALL	154500
TTM_SCR_S	148900
TTM_SCR_SS	153500
TTM_RAT_ACV	10065

