VERSION	0.00.00	1.03.00
FES_MODE	0
BPM_DEF	155.300	155.300	155.300	155.300
MET_DEF	4	4
RESOLUTION	384
CLK_DEF	384
COMPATIBLE_CODE	MA2

BPM	0	0	155.300
MET	0	0	4	4

TAP	2	0	3
TAP	3	0	4
TAP	4	0	5
HLD	5	0	6	192
HLD	6	0	6	192
HLD	7	0	6	192
HLD	9	192	0	288
HLD	10	192	7	288
HLD	11	192	1	96
HLD	12	0	6	96
TAP	12	192	7
TAP	12	288	0
TAP	13	0	7
TAP	13	96	0
HLD	13	192	0	288
HLD	14	192	7	288
HLD	15	192	1	96
HLD	16	0	6	96
TAP	16	192	7
TAP	16	288	0
TAP	17	0	7
BRK	17	96	0
TAP	17	192	4
TAP	17	288	3
TAP	18	0	1
TAP	18	96	1
TAP	18	192	3
TAP	18	288	4
TAP	19	0	6
TAP	19	96	6
TAP	19	192	0
TAP	19	192	7
TAP	19	288	0
TAP	19	288	7
TAP	20	0	3
TAP	20	0	4
TAP	20	96	3
TAP	20	96	4
TAP	20	192	1
TAP	20	288	6
TAP	21	0	1
TAP	21	96	6
TAP	21	192	0
TAP	21	288	7
TAP	22	0	5
TAP	22	96	5
TAP	22	192	7
TAP	22	288	0
TAP	23	0	2
TAP	23	96	2
TAP	23	192	0
TAP	23	192	7
TAP	23	288	0
TAP	23	288	7
TAP	24	0	3
TAP	24	0	4
TAP	24	96	3
TAP	24	96	4
TAP	24	192	1
TAP	24	288	6
TAP	25	0	1
TAP	25	96	6
TAP	25	288	6
TAP	26	96	6
TAP	26	288	1
TAP	27	96	1
TAP	27	192	0
TAP	27	192	7
TAP	27	288	0
TAP	27	288	7
TAP	28	192	0
TAP	28	192	7
TAP	28	288	0
TAP	28	288	7
TAP	29	288	6
TAP	30	96	6
TAP	30	288	1
TAP	31	96	1
STR	31	192	6
SI_	31	192	6	96	192	1
STR	32	192	1
SI_	32	192	1	96	192	6
TAP	33	192	7
TAP	33	288	0
TAP	34	0	0
TAP	34	0	7
TAP	34	192	1
TAP	34	288	6
HLD	35	0	1	96
TAP	35	192	6
TAP	35	288	1
HLD	36	0	6	96
TAP	36	192	1
TAP	36	288	1
TAP	37	0	6
TAP	37	96	6
TAP	37	192	7
TAP	37	288	0
TAP	38	0	0
TAP	38	0	7
TAP	38	192	7
TAP	38	288	0
HLD	39	0	1	96
TAP	39	192	0
TAP	39	288	7
HLD	40	0	6	96
TAP	40	192	1
TAP	40	288	1
TAP	41	0	6
TAP	41	96	6
TAP	41	192	7
TAP	41	288	0
TAP	42	0	1
BRK	42	48	1
TAP	42	192	7
TAP	42	288	2
HLD	43	0	1	96
TAP	43	192	0
TAP	43	288	5
HLD	44	0	6	96
TAP	44	192	1
TAP	44	288	1
TAP	45	0	6
TAP	45	96	6
TAP	45	192	0
TAP	45	288	7
TAP	46	0	6
BRK	46	48	6
TAP	46	192	2
TAP	46	288	1
HLD	47	0	1	96
TAP	47	192	5
TAP	47	288	6
HLD	48	0	6	96
TAP	48	192	1
TAP	48	288	1
TAP	49	0	6
TAP	49	96	6
HLD	49	192	0	288
HLD	50	192	7	288
HLD	51	192	1	96
HLD	51	288	0	96
HLD	52	0	7	96
TAP	52	192	7
TAP	52	288	0
TAP	53	0	6
TAP	53	96	1
HLD	53	192	2	288
HLD	53	192	7	288

T_REC_TAP	116
T_REC_BRK	3
T_REC_XTP	0
T_REC_HLD	26
T_REC_XHO	0
T_REC_STR	2
T_REC_BST	0
T_REC_XST	0
T_REC_TTP	0
T_REC_THO	0
T_REC_SLD	2
T_REC_ALL	149
T_NUM_TAP	118
T_NUM_BRK	3
T_NUM_HLD	26
T_NUM_SLD	2
T_NUM_ALL	149
T_JUDGE_TAP	121
T_JUDGE_HLD	90
T_JUDGE_SLD	2
T_JUDGE_ALL	213
TTM_EACHPAIRS	15
TTM_SCR_TAP	59000
TTM_SCR_BRK	7800
TTM_SCR_HLD	26000
TTM_SCR_SLD	3000
TTM_SCR_ALL	95800
TTM_SCR_S	92650
TTM_SCR_SS	95500
TTM_RAT_ACV	10031

