VERSION	0.00.00	1.03.00
FES_MODE	0
BPM_DEF	112.000	112.000	112.000	112.000
MET_DEF	4	4
RESOLUTION	384
CLK_DEF	384
COMPATIBLE_CODE	MA2

BPM	0	0	112.000
MET	0	0	4	4

TAP	1	0	1
TAP	1	96	1
TAP	1	192	1
TAP	1	288	1
TAP	2	0	6
TAP	2	96	6
TAP	2	192	6
TAP	2	288	6
TAP	3	0	0
TAP	3	48	1
TAP	3	96	2
TAP	3	192	7
TAP	3	240	6
TAP	3	288	5
TAP	4	0	1
TAP	4	48	2
TAP	4	96	3
STR	4	192	3
SI_	4	192	3	96	48	0
STR	4	192	4
SI_	4	192	4	96	48	7
TAP	5	96	6
TAP	5	288	6
TAP	6	96	1
TAP	6	192	1
TAP	6	288	6
TAP	6	288	7
TAP	6	336	6
TAP	6	336	7
TAP	7	96	2
TAP	7	288	3
TAP	8	96	3
TAP	9	0	7
TAP	9	96	2
TAP	9	192	5
TAP	9	288	1
TAP	10	0	6
TAP	10	96	0
TAP	10	192	7
TAP	11	0	1
TAP	11	192	6
TAP	12	0	6
TAP	12	96	0
TAP	12	96	1
BRK	12	144	0
BRK	12	144	1
TAP	12	192	3
TAP	12	224	4
TAP	12	240	3
HLD	12	272	4	64
TAP	12	288	1
TAP	12	336	1
TAP	13	0	4
TAP	13	32	3
TAP	13	48	4
HLD	13	80	3	64
TAP	13	96	6
TAP	13	144	6
TAP	13	192	3
TAP	13	224	4
TAP	13	240	3
TAP	13	272	4
STR	13	288	3
SI_	13	288	3	96	48	7
TAP	13	336	1
STR	14	0	4
SI_	14	0	4	96	48	0
TAP	14	192	7
TAP	14	240	6
TAP	14	272	1
TAP	14	288	0
TAP	14	320	0
TAP	14	336	7
TAP	15	0	3
TAP	15	48	2
TAP	15	80	5
TAP	15	96	4
TAP	15	128	4
TAP	15	144	3
TAP	15	192	0
TAP	15	224	7
TAP	15	240	6
TAP	15	272	6
STR	15	288	4
SI_	15	288	4	96	48	0
TAP	15	336	6
STR	16	0	3
SI_	16	0	3	96	48	7
TAP	16	192	3
TAP	16	224	4
TAP	16	240	3
HLD	16	272	4	64
TAP	16	288	1
TAP	16	336	1
TAP	17	0	4
TAP	17	32	3
TAP	17	48	4
HLD	17	80	3	64
TAP	17	96	6
TAP	17	144	6
TAP	17	192	3
TAP	17	224	4
TAP	17	240	3
TAP	17	272	4
STR	17	288	3
SI_	17	288	3	96	48	7
TAP	17	336	1
STR	18	0	4
SI_	18	0	4	96	48	0
TAP	18	192	7
TAP	18	240	6
TAP	18	272	1
TAP	18	288	0
TAP	18	320	0
TAP	18	336	7
TAP	19	0	3
TAP	19	48	2
TAP	19	80	7
STR	19	96	7
SI_	19	96	7	96	48	2
TAP	19	144	1
STR	19	192	5
SI_	19	192	5	96	48	0
STR	19	288	3
SI_	19	288	3	96	48	7
STR	20	0	4
SI_	20	0	4	96	48	0
TAP	20	192	5
TAP	20	264	7
TAP	20	288	6
TAP	20	336	7
TAP	21	0	0
TAP	21	72	1
TAP	21	96	2
TAP	21	144	1
TAP	21	192	0
TAP	21	264	7
TAP	21	288	6
TAP	21	336	7
TAP	22	0	0
TAP	22	96	6
TAP	22	96	7
TAP	22	144	0
TAP	22	144	1
TAP	22	192	2
TAP	22	264	3
TAP	22	288	4
TAP	22	336	3
TAP	23	0	4
TAP	23	72	5
TAP	23	96	6
TAP	23	144	5
TAP	23	192	4
TAP	23	288	3
TAP	24	144	6
HLD	24	192	7	144
TAP	24	336	3
HLD	25	0	2	144
TAP	25	144	7
HLD	25	192	6	96
HLD	25	288	0	96
HLD	26	0	1	96
TAP	26	144	2
TAP	26	192	3
TAP	26	240	2
TAP	26	336	7
TAP	27	0	6
TAP	27	48	5
TAP	27	144	5
TAP	27	192	1
TAP	27	192	6
TAP	27	240	7
TAP	27	288	0
TAP	27	288	6
TAP	27	336	1
TAP	27	336	7
TAP	28	0	0
TAP	28	48	7
TAP	28	96	0
TAP	28	96	7
TAP	28	192	0
TAP	28	224	7
TAP	28	272	0
TAP	28	288	7
TAP	29	0	6
TAP	29	32	5
TAP	29	48	4
TAP	29	80	5
TAP	29	96	5
TAP	29	96	6
TAP	29	144	0
TAP	29	144	1
TAP	29	192	1
TAP	29	224	2
TAP	29	240	3
TAP	29	272	2
TAP	29	288	1
TAP	29	288	2
TAP	29	336	6
TAP	29	336	7
TAP	30	0	0
TAP	30	48	7
TAP	30	96	0
TAP	30	96	7
TAP	30	192	0
TAP	30	224	7
TAP	30	272	0
TAP	30	288	7
TAP	31	0	1
TAP	31	32	2
TAP	31	48	3
TAP	31	80	2
TAP	31	96	1
TAP	31	96	2
TAP	31	144	6
TAP	31	144	7
TAP	31	192	6
TAP	31	224	5
TAP	31	240	4
TAP	31	272	5
TAP	31	288	5
TAP	31	288	6
TAP	31	336	0
TAP	31	336	1
TAP	32	0	7
TAP	32	48	0
TAP	32	96	0
TAP	32	96	7
TAP	32	192	7
TAP	32	224	0
TAP	32	272	7
TAP	32	288	0
TAP	33	0	6
TAP	33	32	5
TAP	33	48	4
TAP	33	80	5
TAP	33	96	5
TAP	33	96	6
TAP	33	144	0
TAP	33	144	1
TAP	33	192	1
TAP	33	224	2
TAP	33	240	3
TAP	33	272	2
TAP	33	288	1
TAP	33	288	2
TAP	33	336	6
TAP	33	336	7
TAP	34	0	0
TAP	34	32	1
TAP	34	48	1
TAP	34	48	2
TAP	34	80	2
TAP	34	96	0
TAP	34	96	2
TAP	34	128	0
TAP	34	144	7
TAP	34	192	7
TAP	34	224	6
TAP	34	240	5
TAP	34	240	6
TAP	34	272	5
TAP	34	288	5
TAP	34	288	7
TAP	34	320	7
TAP	34	336	0
HLD	35	0	5	384
TAP	36	0	1
TAP	36	48	0
TAP	36	80	2
TAP	36	96	1
TAP	36	144	0
TAP	36	144	1
TAP	36	192	6
TAP	36	240	7
TAP	36	272	5
TAP	36	288	6
TAP	36	336	6
TAP	36	336	7
TAP	37	0	2
TAP	37	48	3
TAP	37	80	1
TAP	37	96	2
TAP	37	144	2
TAP	37	144	3
TAP	37	192	5
TAP	37	240	4
TAP	37	272	6
TAP	37	288	5
TAP	37	288	6
TAP	37	336	4
TAP	37	336	5
TAP	38	0	0
TAP	38	48	7
TAP	38	80	1
TAP	38	96	0
TAP	38	144	2
TAP	38	144	6
TAP	38	192	7
TAP	38	240	0
TAP	38	272	6
TAP	38	288	7
TAP	38	336	1
TAP	38	336	5
TAP	39	0	0
TAP	39	96	0
HLD	40	0	7	192
HLD	40	192	0	192
HLD	41	0	7	192
TAP	41	192	6
TAP	41	288	5
TAP	41	368	5
TAP	42	0	4
TAP	42	48	4
TAP	42	96	3
TAP	42	176	3
TAP	42	192	2
TAP	42	240	2
TAP	42	288	1
TAP	42	368	1
TAP	43	0	0
TAP	43	48	0
STR	43	96	6
SCL	43	96	6	96	48	3
STR	43	96	7
SCR	43	96	7	96	48	2
TAP	43	144	6
TAP	43	144	7
STR	43	288	0
SCL	43	288	0	96	48	5
STR	43	288	1
SCR	43	288	1	96	48	4
TAP	43	336	0
TAP	43	336	1
STR	44	96	6
SCL	44	96	6	96	48	3
STR	44	96	7
SCR	44	96	7	96	48	2
TAP	44	144	6
TAP	44	144	7
STR	44	288	0
SCL	44	288	0	96	48	5
STR	44	288	1
SCR	44	288	1	96	48	4
TAP	44	336	0
TAP	44	336	1
STR	45	96	3
SCL	45	96	3	96	48	0
STR	45	96	4
SCR	45	96	4	96	48	7
TAP	45	144	3
TAP	45	144	4
BRK	45	288	0
BRK	45	288	7
BRK	45	336	1
BRK	45	336	6

T_REC_TAP	293
T_REC_BRK	6
T_REC_XTP	0
T_REC_HLD	13
T_REC_XHO	0
T_REC_STR	22
T_REC_BST	0
T_REC_XST	0
T_REC_TTP	0
T_REC_THO	0
T_REC_SLD	22
T_REC_ALL	356
T_NUM_TAP	315
T_NUM_BRK	6
T_NUM_HLD	13
T_NUM_SLD	22
T_NUM_ALL	356
T_JUDGE_TAP	321
T_JUDGE_HLD	76
T_JUDGE_SLD	22
T_JUDGE_ALL	419
TTM_EACHPAIRS	48
TTM_SCR_TAP	157500
TTM_SCR_BRK	15600
TTM_SCR_HLD	13000
TTM_SCR_SLD	33000
TTM_SCR_ALL	219100
TTM_SCR_S	211950
TTM_SCR_SS	218500
TTM_RAT_ACV	10027

