VERSION	0.00.00	1.03.00
FES_MODE	0
BPM_DEF	112.000	112.000	112.000	112.000
MET_DEF	4	4
RESOLUTION	384
CLK_DEF	384
COMPATIBLE_CODE	MA2

BPM	0	0	112.000
MET	0	0	4	4

TAP	1	96	1
TAP	1	288	0
TAP	1	288	1
TAP	2	96	0
TAP	2	240	0
TAP	2	240	7
TAP	2	288	6
TAP	2	288	7
TAP	3	96	6
TAP	3	288	6
TAP	3	288	7
TAP	4	96	7
TAP	4	240	0
TAP	4	240	7
TAP	4	288	0
TAP	4	288	1
TAP	4	336	0
TAP	4	336	7
TAP	5	96	2
TAP	5	96	3
TAP	5	288	2
TAP	5	288	3
TAP	6	96	4
TAP	6	96	5
TAP	6	288	6
TAP	6	288	7
TAP	6	336	6
TAP	6	336	7
TAP	7	96	4
TAP	7	96	5
TAP	7	288	4
TAP	7	288	5
TAP	8	96	2
TAP	8	96	3
STR	8	288	2
SI_	8	288	2	96	48	7
TAP	8	288	3
TAP	9	96	4
STR	9	96	5
SI_	9	96	5	96	48	0
STR	9	288	2
SI_	9	288	2	96	48	7
TAP	9	288	3
TAP	10	192	0
TAP	10	192	1
TAP	10	240	0
TAP	10	240	1
TAP	11	0	4
TAP	11	0	5
TAP	11	192	2
TAP	11	192	3
TAP	12	0	4
TAP	12	0	5
TAP	12	48	0
BRK	12	96	7
BRK	12	144	7
TAP	12	192	1
TAP	12	192	2
TAP	12	288	0
TAP	12	288	7
TAP	13	0	1
TAP	13	0	2
TAP	13	48	0
TAP	13	48	1
TAP	13	96	0
TAP	13	96	7
TAP	13	192	5
TAP	13	192	6
TAP	13	288	0
TAP	13	288	7
TAP	14	0	5
TAP	14	0	6
TAP	14	48	6
TAP	14	48	7
TAP	14	96	0
TAP	14	96	7
TAP	14	192	2
TAP	14	192	3
TAP	14	288	0
TAP	14	288	1
TAP	15	0	2
TAP	15	0	3
TAP	15	48	1
TAP	15	48	2
TAP	15	96	0
TAP	15	96	1
TAP	15	192	4
TAP	15	192	5
TAP	15	288	6
TAP	15	288	7
TAP	16	0	4
TAP	16	0	5
TAP	16	48	5
TAP	16	48	6
TAP	16	96	6
TAP	16	96	7
TAP	16	192	3
TAP	16	192	4
TAP	16	288	1
TAP	16	288	2
TAP	17	0	3
TAP	17	0	4
TAP	17	48	2
TAP	17	48	3
TAP	17	96	1
TAP	17	96	2
TAP	17	192	3
TAP	17	192	4
TAP	17	288	5
TAP	17	288	6
TAP	18	0	3
TAP	18	0	4
TAP	18	48	4
TAP	18	48	5
TAP	18	96	5
TAP	18	96	6
TAP	18	192	2
TAP	18	192	3
TAP	18	240	1
TAP	18	240	2
TAP	18	288	0
TAP	18	288	1
TAP	19	0	4
TAP	19	0	5
TAP	19	48	5
TAP	19	48	6
TAP	19	96	6
TAP	19	96	7
TAP	19	192	1
TAP	19	192	2
TAP	19	240	0
TAP	19	240	1
TAP	19	288	0
TAP	19	288	7
TAP	20	0	5
TAP	20	0	6
TAP	20	48	6
TAP	20	48	7
TAP	20	96	0
TAP	20	96	7
STR	20	192	3
SI_	20	192	3	96	48	0
STR	21	0	4
SI_	21	0	4	96	48	7
STR	21	192	3
SI_	21	192	3	96	96	0
TAP	22	96	7
TAP	22	144	7
STR	22	192	6
SCR	22	192	6	96	96	1
STR	23	0	2
SCL	23	0	2	96	96	7
STR	23	192	5
SCR	23	192	5	96	96	0
HLD	24	96	7	72
TAP	24	168	0
TAP	24	192	1
HLD	24	288	0	72
TAP	24	360	7
TAP	25	0	6
HLD	25	96	7	72
TAP	25	168	0
TAP	25	192	1
HLD	25	288	0	96
TAP	26	0	6
TAP	26	48	6
TAP	26	96	5
TAP	26	168	4
TAP	26	192	3
TAP	26	288	2
TAP	26	360	3
TAP	27	0	4
TAP	27	96	5
TAP	27	168	4
TAP	27	192	3
TAP	27	240	2
BRK	27	288	1
BRK	27	336	1
TAP	28	0	3
TAP	28	0	4
TAP	28	48	1
TAP	28	96	1
TAP	28	96	2
TAP	28	144	4
TAP	28	192	3
TAP	28	192	4
TAP	28	240	1
TAP	28	288	1
TAP	28	288	2
TAP	28	336	4
TAP	29	0	3
TAP	29	0	4
TAP	29	48	6
TAP	29	96	5
TAP	29	96	6
TAP	29	144	3
TAP	29	192	3
TAP	29	192	4
TAP	29	240	6
TAP	29	288	5
TAP	29	288	6
TAP	29	336	3
TAP	30	0	3
TAP	30	0	4
TAP	30	48	1
TAP	30	96	1
TAP	30	96	2
TAP	30	144	4
TAP	30	192	3
TAP	30	192	4
TAP	30	240	1
TAP	30	288	1
TAP	30	288	2
TAP	30	336	4
TAP	31	0	3
TAP	31	0	4
TAP	31	48	6
TAP	31	96	5
TAP	31	96	6
TAP	31	144	3
TAP	31	192	3
TAP	31	192	4
TAP	31	240	6
TAP	31	288	5
TAP	31	288	6
TAP	31	336	3
TAP	32	0	3
TAP	32	0	4
TAP	32	48	2
TAP	32	48	3
TAP	32	96	1
TAP	32	96	2
TAP	32	144	2
TAP	32	144	3
TAP	32	192	3
TAP	32	192	4
TAP	32	240	2
TAP	32	240	3
TAP	32	288	1
TAP	32	288	2
TAP	32	336	2
TAP	32	336	3
TAP	33	0	3
TAP	33	0	4
TAP	33	48	4
TAP	33	48	5
TAP	33	96	5
TAP	33	96	6
TAP	33	144	4
TAP	33	144	5
TAP	33	192	3
TAP	33	192	4
TAP	33	240	4
TAP	33	240	5
TAP	33	288	5
TAP	33	288	6
TAP	33	336	4
TAP	33	336	5
TAP	34	0	3
TAP	34	0	4
TAP	34	48	2
TAP	34	48	3
TAP	34	96	1
TAP	34	96	2
TAP	34	144	2
TAP	34	144	3
TAP	34	192	3
TAP	34	192	4
TAP	34	240	4
TAP	34	240	5
TAP	34	288	5
TAP	34	288	6
TAP	34	336	6
TAP	34	336	7
HLD	35	0	0	288
TAP	36	0	0
TAP	36	72	0
TAP	36	96	1
TAP	36	144	1
TAP	36	192	7
TAP	36	264	7
TAP	36	288	6
TAP	36	336	6
TAP	37	0	0
TAP	37	72	0
TAP	37	96	1
TAP	37	144	1
HLD	37	192	7	144
TAP	37	288	0
TAP	37	336	0
TAP	38	0	7
TAP	38	72	7
TAP	38	96	6
TAP	38	144	6
TAP	38	192	5
TAP	38	264	5
TAP	38	288	4
TAP	38	336	4
TAP	39	0	3
TAP	39	72	3
HLD	39	96	2	96
TAP	39	336	0
TAP	39	360	7
HLD	40	0	6	144
TAP	40	144	7
TAP	40	168	0
HLD	40	192	1	144
TAP	40	336	0
TAP	40	360	7
HLD	41	0	6	96
HLD	41	96	7	144
TAP	41	192	0
TAP	41	240	0
HLD	41	288	5	72
TAP	41	360	4
TAP	42	0	3
HLD	42	96	2	72
TAP	42	168	3
TAP	42	192	4
HLD	42	288	5	72
TAP	42	360	4
TAP	43	0	3
TAP	43	48	4
TAP	43	48	5
TAP	43	96	6
TAP	43	96	7
TAP	43	144	4
TAP	43	144	5
TAP	43	192	3
TAP	43	192	4
TAP	43	240	2
TAP	43	240	3
TAP	43	288	0
TAP	43	288	1
TAP	43	336	2
TAP	43	336	3
TAP	44	0	3
TAP	44	0	4
TAP	44	48	4
TAP	44	48	5
TAP	44	96	6
TAP	44	96	7
TAP	44	144	4
TAP	44	144	5
TAP	44	192	3
TAP	44	192	4
TAP	44	240	2
TAP	44	240	3
TAP	44	288	0
TAP	44	288	1
TAP	44	336	2
TAP	44	336	3
TAP	45	0	3
TAP	45	0	4
TAP	45	48	4
TAP	45	48	5
TAP	45	96	6
TAP	45	96	7
TAP	45	144	4
TAP	45	144	5
TAP	45	192	3
TAP	45	192	4
TAP	45	240	2
TAP	45	240	3
TAP	45	288	0
TAP	45	288	1
STR	45	336	2
SCL	45	336	2	96	96	7
STR	45	336	3
SCR	45	336	3	96	96	6

T_REC_TAP	330
T_REC_BRK	4
T_REC_XTP	0
T_REC_HLD	14
T_REC_XHO	0
T_REC_STR	11
T_REC_BST	0
T_REC_XST	0
T_REC_TTP	0
T_REC_THO	0
T_REC_SLD	11
T_REC_ALL	370
T_NUM_TAP	341
T_NUM_BRK	4
T_NUM_HLD	14
T_NUM_SLD	11
T_NUM_ALL	370
T_JUDGE_TAP	345
T_JUDGE_HLD	66
T_JUDGE_SLD	11
T_JUDGE_ALL	422
TTM_EACHPAIRS	128
TTM_SCR_TAP	170500
TTM_SCR_BRK	10400
TTM_SCR_HLD	14000
TTM_SCR_SLD	16500
TTM_SCR_ALL	211400
TTM_SCR_S	204700
TTM_SCR_SS	211000
TTM_RAT_ACV	10018

