VERSION	0.00.00	1.03.00
FES_MODE	0
BPM_DEF	112.000	112.000	112.000	112.000
MET_DEF	4	4
RESOLUTION	384
CLK_DEF	384
COMPATIBLE_CODE	MA2

BPM	0	0	112.000
MET	0	0	4	4

TAP	1	96	2
TAP	1	192	1
TAP	1	288	0
TAP	1	288	1
TAP	2	96	5
TAP	2	192	6
TAP	2	288	6
TAP	2	288	7
TAP	3	96	6
TAP	3	192	7
TAP	3	288	0
TAP	3	288	7
TAP	4	96	2
TAP	4	192	3
TAP	4	288	3
TAP	4	288	4
TAP	5	0	1
TAP	5	96	6
TAP	5	96	7
TAP	5	192	6
TAP	5	288	0
TAP	5	288	1
TAP	6	0	1
TAP	6	96	6
TAP	6	96	7
TAP	6	192	6
TAP	6	288	1
BRK	6	336	1
TAP	7	0	2
TAP	7	96	4
TAP	7	96	5
TAP	7	192	5
TAP	7	288	2
TAP	7	288	3
TAP	8	0	2
TAP	8	96	3
TAP	8	96	4
TAP	8	288	2
TAP	9	0	0
TAP	9	0	6
TAP	9	96	5
TAP	9	192	1
TAP	9	192	7
TAP	9	288	2
TAP	10	0	3
TAP	10	0	5
TAP	10	96	5
TAP	10	192	2
TAP	10	192	4
TAP	11	0	6
TAP	11	0	7
TAP	11	192	0
TAP	11	192	1
TAP	11	288	7
TAP	12	0	0
TAP	12	96	6
BRK	12	144	6
TAP	12	192	6
TAP	12	288	5
TAP	13	0	4
STR	13	96	3
SI_	13	96	3	96	96	6
STR	13	288	2
SI_	13	288	2	96	96	7
BRK	14	96	0
TAP	14	192	1
TAP	14	288	2
TAP	15	0	3
STR	15	96	4
SI_	15	96	4	96	96	1
STR	15	288	5
SI_	15	288	5	96	96	0
BRK	16	96	7
TAP	16	192	6
TAP	16	288	5
TAP	17	0	4
TAP	17	96	3
TAP	17	96	4
TAP	17	192	2
TAP	17	288	1
TAP	18	0	1
TAP	18	96	2
TAP	18	96	3
TAP	18	192	1
TAP	18	288	1
TAP	18	288	2
TAP	19	0	3
TAP	19	96	3
TAP	19	96	4
TAP	19	192	5
TAP	19	288	5
TAP	19	288	6
TAP	20	0	6
TAP	20	0	7
TAP	20	96	0
TAP	20	96	7
TAP	20	192	6
TAP	20	288	0
TAP	20	288	1
TAP	21	0	5
TAP	21	96	2
TAP	21	96	3
TAP	21	192	1
TAP	21	288	6
TAP	21	288	7
TAP	22	0	6
TAP	22	96	0
TAP	22	144	0
TAP	22	288	0
TAP	22	288	1
TAP	23	0	0
TAP	23	96	0
TAP	23	96	7
TAP	23	192	6
TAP	23	288	6
TAP	24	0	6
TAP	24	96	2
TAP	24	192	2
TAP	24	192	3
TAP	24	288	5
TAP	25	0	4
TAP	25	0	5
TAP	25	96	2
TAP	25	192	2
TAP	25	192	3
TAP	25	288	5
TAP	26	0	4
TAP	26	0	5
TAP	26	96	6
TAP	26	192	0
TAP	26	192	6
TAP	26	288	1
TAP	27	0	1
TAP	27	0	7
TAP	27	96	0
TAP	27	192	1
TAP	27	288	0
BRK	27	336	0
TAP	28	0	2
TAP	28	96	1
TAP	28	192	0
STR	28	288	7
SI_	28	288	7	96	96	2
STR	29	96	6
SI_	29	96	6	96	96	3
TAP	29	288	4
TAP	30	0	5
TAP	30	96	6
TAP	30	192	7
STR	30	288	0
SI_	30	288	0	96	96	5
STR	31	96	1
SI_	31	96	1	96	96	4
TAP	31	288	0
TAP	32	0	1
TAP	32	96	2
TAP	32	192	3
STR	32	288	4
SI_	32	288	4	96	96	1
STR	33	96	5
SI_	33	96	5	96	96	0
STR	33	288	3
SI_	33	288	3	96	96	6
STR	34	96	2
SI_	34	96	2	96	96	7
HLD	35	0	0	288
TAP	36	0	3
TAP	36	96	1
TAP	36	96	2
TAP	36	192	4
TAP	36	288	5
TAP	36	288	6
TAP	37	0	3
TAP	37	96	0
TAP	37	96	1
TAP	37	192	4
TAP	37	288	6
TAP	37	288	7
TAP	37	336	6
TAP	37	336	7
TAP	38	96	4
TAP	38	96	5
TAP	38	192	6
TAP	38	288	2
TAP	38	288	3
TAP	39	0	1
TAP	39	96	0
TAP	39	96	7
TAP	39	288	0
TAP	40	0	1
TAP	40	0	6
TAP	40	96	7
TAP	40	192	1
TAP	40	192	6
TAP	40	288	2
TAP	41	0	1
TAP	41	0	6
TAP	41	96	5
TAP	41	192	1
TAP	41	192	6
TAP	41	288	0
TAP	42	0	2
TAP	42	0	3
TAP	42	96	4
TAP	42	192	4
TAP	42	192	5
TAP	42	288	6
TAP	43	0	6
TAP	43	0	7
TAP	43	96	0
BRK	43	144	0
TAP	43	192	7
TAP	44	0	6
TAP	44	0	7
TAP	44	192	0
TAP	44	192	7
TAP	45	0	2
TAP	45	0	5
TAP	45	192	1
TAP	45	192	5
TAP	46	0	2
TAP	46	0	6

T_REC_TAP	191
T_REC_BRK	6
T_REC_XTP	0
T_REC_HLD	1
T_REC_XHO	0
T_REC_STR	12
T_REC_BST	0
T_REC_XST	0
T_REC_TTP	0
T_REC_THO	0
T_REC_SLD	12
T_REC_ALL	222
T_NUM_TAP	203
T_NUM_BRK	6
T_NUM_HLD	1
T_NUM_SLD	12
T_NUM_ALL	222
T_JUDGE_TAP	209
T_JUDGE_HLD	12
T_JUDGE_SLD	12
T_JUDGE_ALL	233
TTM_EACHPAIRS	54
TTM_SCR_TAP	101500
TTM_SCR_BRK	15600
TTM_SCR_HLD	1000
TTM_SCR_SLD	18000
TTM_SCR_ALL	136100
TTM_SCR_S	131450
TTM_SCR_SS	135500
TTM_RAT_ACV	10044

