VERSION	0.00.00	1.03.00
FES_MODE	0
BPM_DEF	112.000	112.000	112.000	112.000
MET_DEF	4	4
RESOLUTION	384
CLK_DEF	384
COMPATIBLE_CODE	MA2

BPM	0	0	112.000
MET	0	0	4	4

TAP	1	96	0
TAP	1	288	0
TAP	2	96	7
TAP	2	288	7
TAP	3	96	0
TAP	3	288	0
TAP	3	288	7
TAP	4	96	6
TAP	4	288	1
TAP	4	288	6
TAP	5	96	6
TAP	5	96	7
TAP	5	288	0
TAP	5	288	1
TAP	6	96	6
TAP	6	96	7
TAP	6	288	1
BRK	6	336	1
TAP	7	96	2
TAP	7	288	3
TAP	8	96	4
TAP	9	0	7
TAP	9	192	0
TAP	9	192	6
TAP	10	0	1
TAP	10	0	7
TAP	10	192	0
TAP	10	192	7
TAP	11	0	7
TAP	11	192	0
TAP	12	0	7
TAP	12	96	0
BRK	12	144	0
TAP	12	288	6
TAP	13	0	5
TAP	13	96	4
TAP	13	192	3
TAP	13	288	2
TAP	14	0	3
TAP	14	96	3
TAP	14	96	4
TAP	14	192	3
TAP	14	288	2
TAP	15	0	1
TAP	15	96	0
TAP	15	192	7
TAP	15	288	6
TAP	16	0	7
TAP	16	96	0
TAP	16	96	7
TAP	16	192	6
TAP	16	288	5
TAP	17	0	4
TAP	17	96	3
TAP	17	96	4
TAP	17	192	2
TAP	17	288	1
TAP	18	0	1
TAP	18	96	2
TAP	18	96	3
TAP	18	192	1
TAP	18	288	2
TAP	19	0	3
TAP	19	96	4
TAP	19	192	5
TAP	19	288	6
TAP	20	0	7
TAP	20	96	0
TAP	20	96	7
TAP	20	288	2
TAP	20	288	3
TAP	21	96	4
TAP	21	96	5
TAP	21	288	6
TAP	21	288	7
TAP	22	96	0
BRK	22	144	0
TAP	22	288	1
TAP	23	96	0
TAP	23	96	7
TAP	23	288	6
TAP	24	192	2
TAP	24	192	3
TAP	25	0	4
TAP	25	0	5
TAP	25	192	2
TAP	25	192	3
TAP	26	0	4
TAP	26	0	5
TAP	26	192	6
TAP	27	0	1
TAP	27	0	7
TAP	27	96	0
TAP	27	192	1
TAP	27	288	0
BRK	27	336	0
STR	28	96	0
SI_	28	96	0	96	96	3
TAP	29	96	6
TAP	29	144	6
TAP	29	288	5
TAP	29	336	5
STR	30	96	7
SI_	30	96	7	96	96	4
TAP	31	96	6
TAP	31	144	6
TAP	31	288	7
TAP	31	336	7
STR	32	96	6
SI_	32	96	6	96	96	1
TAP	33	96	1
TAP	33	144	1
TAP	33	288	0
TAP	33	336	0
TAP	34	96	7
TAP	34	144	7
TAP	34	288	6
TAP	34	336	6
HLD	35	0	0	288
HLD	35	0	7	288
TAP	36	96	6
TAP	36	96	7
TAP	36	288	0
TAP	36	288	1
TAP	37	96	0
TAP	37	96	7
TAP	37	288	6
BRK	37	336	6
TAP	38	96	4
TAP	38	96	5
TAP	38	288	2
TAP	38	288	3
TAP	39	96	0
TAP	39	96	7
TAP	40	0	3
TAP	40	0	5
TAP	40	192	2
TAP	40	192	4
TAP	41	0	1
TAP	41	0	7
TAP	41	192	0
TAP	41	192	6
TAP	41	288	0
TAP	41	288	1
TAP	42	0	2
TAP	42	96	2
TAP	42	96	3
TAP	42	192	4
TAP	42	288	4
TAP	42	288	5
TAP	43	0	6
TAP	43	96	0
BRK	43	144	0
TAP	43	192	7
TAP	44	0	6
TAP	44	0	7
TAP	44	192	0
TAP	44	192	7
TAP	45	0	2
TAP	45	0	5
TAP	45	192	1
TAP	45	192	5
TAP	46	0	2
TAP	46	0	6

T_REC_TAP	150
T_REC_BRK	6
T_REC_XTP	0
T_REC_HLD	2
T_REC_XHO	0
T_REC_STR	3
T_REC_BST	0
T_REC_XST	0
T_REC_TTP	0
T_REC_THO	0
T_REC_SLD	3
T_REC_ALL	164
T_NUM_TAP	153
T_NUM_BRK	6
T_NUM_HLD	2
T_NUM_SLD	3
T_NUM_ALL	164
T_JUDGE_TAP	159
T_JUDGE_HLD	24
T_JUDGE_SLD	3
T_JUDGE_ALL	186
TTM_EACHPAIRS	41
TTM_SCR_TAP	76500
TTM_SCR_BRK	15600
TTM_SCR_HLD	2000
TTM_SCR_SLD	4500
TTM_SCR_ALL	98600
TTM_SCR_S	95100
TTM_SCR_SS	98000
TTM_RAT_ACV	10061

