VERSION	0.00.00	1.03.00
FES_MODE	0
BPM_DEF	146.000	146.000	146.000	146.000
MET_DEF	4	4
RESOLUTION	384
CLK_DEF	384
COMPATIBLE_CODE	MA2

BPM	0	0	146.000
MET	0	0	4	4

TAP	1	0	0
TAP	1	0	7
TAP	1	336	1
TAP	1	336	6
TAP	2	0	0
TAP	2	0	7
TAP	2	216	6
TAP	2	216	7
TAP	2	288	6
TAP	2	288	7
TAP	2	336	0
TAP	2	336	7
TAP	3	0	0
TAP	3	0	1
TAP	4	0	0
TAP	4	32	0
TAP	4	64	0
TAP	4	96	6
TAP	4	128	7
TAP	4	160	0
BRK	4	192	1
TAP	5	0	5
TAP	5	48	1
TAP	5	96	5
TAP	5	120	2
TAP	5	168	2
TAP	5	192	5
TAP	5	240	1
TAP	5	288	5
TAP	5	312	2
TAP	5	360	2
TAP	6	0	6
TAP	6	48	0
TAP	6	72	7
TAP	6	120	6
TAP	6	168	5
TAP	6	240	0
TAP	6	288	7
TAP	6	336	6
HLD	7	0	5	288
HLD	7	144	6	528
TAP	8	72	1
TAP	8	96	1
TAP	8	264	1
TAP	8	288	1
TAP	9	0	2
TAP	9	48	6
TAP	9	96	2
TAP	9	120	5
TAP	9	168	5
TAP	9	192	2
TAP	9	240	6
TAP	9	288	2
TAP	9	312	5
TAP	9	360	5
TAP	10	0	1
TAP	10	48	7
TAP	10	72	0
TAP	10	120	1
TAP	10	168	2
TAP	10	240	7
TAP	10	288	0
TAP	10	336	1
HLD	11	0	2	288
HLD	11	144	1	528
TAP	12	72	5
TAP	12	96	5
TAP	12	264	5
TAP	12	288	5
TAP	13	0	6
TAP	13	48	5
TAP	13	96	6
TAP	13	120	0
TAP	13	168	0
TAP	13	192	6
TAP	13	240	5
TAP	13	288	6
TAP	13	312	0
TAP	13	360	0
TAP	14	0	6
TAP	14	48	7
TAP	14	72	3
TAP	14	120	4
TAP	14	168	5
TAP	14	216	6
TAP	14	264	7
TAP	14	288	3
TAP	14	336	4
STR	15	0	5
SCL	15	0	5	96	192	2
HLD	15	144	6	528
TAP	16	72	0
TAP	16	96	0
TAP	16	264	0
TAP	16	288	0
TAP	17	0	1
TAP	17	48	2
TAP	17	96	1
TAP	17	120	7
TAP	17	168	7
TAP	17	192	1
TAP	17	240	2
TAP	17	288	1
TAP	17	312	7
TAP	17	360	7
TAP	18	0	1
TAP	18	48	0
TAP	18	72	4
TAP	18	120	3
TAP	18	168	2
TAP	18	216	1
TAP	18	264	0
TAP	18	288	4
TAP	18	336	3
HLD	19	0	2	96
HLD	19	192	5	96
TAP	20	0	7
TAP	20	32	7
TAP	20	64	7
TAP	20	96	1
TAP	20	128	0
TAP	20	160	7
TAP	20	192	6
TAP	21	0	2
TAP	21	48	2
TAP	21	72	4
TAP	21	120	4
TAP	21	144	2
TAP	21	192	4
TAP	21	240	4
TAP	21	264	3
TAP	21	312	3
TAP	21	336	4
TAP	22	0	3
TAP	22	48	3
TAP	22	72	5
TAP	22	120	5
TAP	22	144	3
TAP	22	192	5
TAP	22	240	5
TAP	22	264	2
TAP	22	312	2
TAP	22	336	5
TAP	23	0	2
TAP	23	48	2
TAP	23	72	4
TAP	23	120	4
TAP	23	144	2
TAP	23	192	4
TAP	23	240	4
TAP	23	264	1
TAP	23	312	1
TAP	23	336	4
TAP	24	0	0
TAP	24	48	0
TAP	24	72	3
TAP	24	120	3
TAP	24	144	0
TAP	24	192	4
TAP	24	240	4
TAP	24	264	1
TAP	24	312	1
TAP	24	336	4
TAP	25	0	4
TAP	25	48	4
TAP	25	72	2
TAP	25	120	2
TAP	25	144	4
TAP	25	192	2
TAP	25	240	2
TAP	25	264	5
TAP	25	312	5
TAP	25	336	2
TAP	26	0	5
TAP	26	48	5
TAP	26	72	3
TAP	26	120	3
TAP	26	144	5
TAP	26	192	3
TAP	26	240	3
TAP	26	264	6
TAP	26	312	6
TAP	26	336	3
TAP	27	0	7
TAP	27	48	7
TAP	27	72	4
TAP	27	120	4
TAP	27	168	7
TAP	27	192	3
TAP	27	240	3
TAP	27	264	6
TAP	27	312	6
TAP	27	336	3
TAP	28	0	7
TAP	28	24	7
TAP	28	72	7
TAP	28	120	7
BRK	28	168	7
TAP	29	0	3
HLD	29	0	4	2592
TAP	29	96	3
TAP	29	192	3
TAP	29	288	3
STR	30	0	3
SI_	30	0	3	96	192	6
TAP	31	0	6
TAP	31	96	6
TAP	31	192	6
TAP	31	288	6
STR	32	0	6
SI_	32	0	6	96	192	2
TAP	33	0	2
TAP	33	96	2
TAP	33	192	2
TAP	33	288	2
STR	34	0	2
SI_	34	0	2	96	192	7
TAP	35	0	7
TAP	35	96	7
TAP	35	192	7
TAP	35	288	7
TAP	36	0	7
TAP	36	24	0
TAP	36	72	0
TAP	36	96	1
TAP	36	120	0
TAP	36	168	0
TAP	36	192	7
TAP	36	216	0
TAP	36	264	0
TAP	36	288	1
TAP	36	288	6
TAP	36	336	0
TAP	36	336	7
TAP	38	0	0
TAP	38	0	7
BRK	38	144	6
BRK	38	144	7
BRK	38	216	3
BRK	38	216	4
BRK	38	288	0
BRK	38	288	1
TAP	39	0	6
TAP	39	72	7
TAP	39	96	0
TAP	39	144	1
TAP	39	192	1
TAP	39	264	0
TAP	39	288	7
TAP	39	336	6
HLD	40	0	6	72
HLD	40	72	5	72
HLD	40	144	4	48
HLD	40	192	3	72
HLD	40	264	2	72
TAP	40	336	1
TAP	41	0	1
TAP	41	72	0
TAP	41	96	7
TAP	41	144	6
TAP	41	192	6
TAP	41	264	7
TAP	41	288	0
TAP	41	336	1
HLD	42	48	1	96
HLD	42	144	2	48
HLD	42	192	3	72
HLD	42	264	4	72
HLD	42	336	5	48
HLD	43	0	6	288
TAP	43	72	7
HLD	43	144	0	144
HLD	44	0	1	288
TAP	44	72	0
HLD	44	144	7	144
HLD	45	0	2	672
TAP	45	72	5
TAP	45	96	5
TAP	45	264	5
TAP	45	288	5
TAP	46	72	5
TAP	46	96	5
TAP	46	264	5
TAP	46	288	5
STR	47	0	7
SI_	47	0	7	96	96	4
STR	47	192	0
SI_	47	192	0	96	96	3
STR	48	0	7
SI_	48	0	7	96	96	3
STR	48	192	0
SI_	48	192	0	96	96	4
STR	49	0	7
SI_	49	0	7	96	96	2
STR	49	192	0
SI_	49	192	0	96	96	5
TAP	50	48	6
STR	50	96	2
SCL	50	96	2	96	96	7
STR	50	96	6
SCL	50	96	6	96	96	3
TAP	51	0	0
TAP	51	72	5
TAP	51	96	0
TAP	51	192	0
TAP	51	264	5
TAP	51	288	0
TAP	52	0	7
TAP	52	72	1
TAP	52	96	7
TAP	52	192	7
TAP	52	264	1
TAP	52	288	7
TAP	53	0	1
TAP	53	72	1
TAP	53	144	1
TAP	53	192	6
TAP	53	264	6
TAP	53	336	6
TAP	54	0	0
TAP	54	0	7
BRK	54	24	0
BRK	54	24	7
TAP	54	96	2
TAP	54	96	3
TAP	54	144	4
TAP	54	144	5
TAP	54	192	0
TAP	54	192	7
BRK	54	216	0
BRK	54	216	7
TAP	54	288	2
TAP	54	288	5
TAP	54	336	3
TAP	54	336	4
BRK	55	0	0
BRK	55	0	7
TAP	55	32	6
TAP	55	64	7
TAP	55	96	0
TAP	55	128	1
TAP	55	160	0
BRK	55	192	0
BRK	55	192	7

T_REC_TAP	281
T_REC_BRK	16
T_REC_XTP	0
T_REC_HLD	23
T_REC_XHO	0
T_REC_STR	12
T_REC_BST	0
T_REC_XST	0
T_REC_TTP	0
T_REC_THO	0
T_REC_SLD	12
T_REC_ALL	344
T_NUM_TAP	293
T_NUM_BRK	16
T_NUM_HLD	23
T_NUM_SLD	12
T_NUM_ALL	344
T_JUDGE_TAP	309
T_JUDGE_HLD	152
T_JUDGE_SLD	12
T_JUDGE_ALL	473
TTM_EACHPAIRS	25
TTM_SCR_TAP	146500
TTM_SCR_BRK	41600
TTM_SCR_HLD	23000
TTM_SCR_SLD	18000
TTM_SCR_ALL	229100
TTM_SCR_S	220700
TTM_SCR_SS	227500
TTM_RAT_ACV	10070

